<?xml version="1.0" standalone="no"?>
<!DOCTYPE svg PUBLIC "-//W3C//DTD SVG 1.1//EN" "http://www.w3.org/Graphics/SVG/1.1/DTD/svg11.dtd">
<svg xmlns="http://www.w3.org/2000/svg">
<defs >
<font id="Unna" horiz-adv-x="451" ><font-face
    font-family="Unna"
    units-per-em="1000"
    panose-1="2 4 5 3 7 7 5 9 2 3"
    ascent="883"
    descent="-269"
    alphabetic="0" />
<glyph unicode=" " glyph-name="space" horiz-adv-x="220" />
<glyph unicode="!" glyph-name="exclam" horiz-adv-x="263" d="M222 637T233 627T245 597Q245 584 241 564T230 520L205 428Q169 292 160 217Q159 201 147 201Q136 201 136 210Q137 224 140 268T145 336L144 428L143 520Q142 558 145 588Q148 611 162 624T200
637Q222 637 233 627ZM63 68T85 86T137 105Q161 105 176 90T192 53Q192 28 170 9T120 -10Q97 -10 80 5T63 42Q63 68 85 86Z" />
<glyph unicode="&quot;" glyph-name="quotedbl" horiz-adv-x="247" d="M89 618T101 629T129 640Q156 640 156 607Q156 594 135 516L113 423Q110 409 96 409Q90 409 87 414T84 426L85 449L87 519Q87 546 89 600Q89 618 101 629ZM202 618T214 629T242 640Q269 640
269 607Q269 594 248 516L226 423Q223 409 209 409Q203 409 200 414T197 426L198 449L200 519Q200 546 202 600Q202 618 214 629Z" />
<glyph unicode="#" glyph-name="numbersign" horiz-adv-x="489" d="M491 639L407 445H504L489 405H390L317 234H415L397 194H300L212 -9H170L258 194H151L63 -9H22L109 194H14L31 234H126L200 405H104L119 445H216L301 639H342L257 445H365L449 639H491ZM349 405H242L168
234H276L349 405Z" />
<glyph unicode="$" glyph-name="dollar" horiz-adv-x="452" d="M348 300T348 242Q348 189 314 157T223 120L194 -95H156L186 120Q161 123 132 133Q109 140 98 140Q84 140 73 134L88 241L109 242Q111 197 138 169T211 141Q245 141 264 160T283 211Q283 230 273
242T238 261L164 283Q138 291 122 312T106 362Q106 409 142 439T236 471L260 647H298L273 467L295 461Q323 453 336 453Q348 453 361 462L343 369H323Q324 372 324 379Q324 408 302 428T241 449Q169 449 169 387Q169 352 212 340L287 318Q348 300 348 242Z" />
<glyph unicode="%" glyph-name="percent" horiz-adv-x="597" d="M251 608T278 578T306 492Q306 412 267 368T164 324Q116 324 89 354T62 439Q62 519 101 563T204 608Q251 608 278 578ZM539 607L571 586L84 -5L53 19L539 607ZM165 590T145 547T124 421Q124 343
167 343Q204 343 223 385T243 512Q243 554 233 572T201 590Q165 590 145 547ZM505 275T532 245T560 159Q560 80 521 36T418 -9Q369 -9 342 21T315 106Q315 186 355 230T458 275Q505 275 532 245ZM419 257T399 214T378 88Q378 10 420 10Q497 10 497 179Q497 221
487 239T455 257Q419 257 399 214Z" />
<glyph unicode="&amp;" glyph-name="ampersand" horiz-adv-x="590" d="M574 317T537 290T442 249Q483 219 483 164Q483 114 452 75T367 13T248 -9Q183 -9 131 13T48 75T17 168Q17 215 42 256T119 324T243 352Q208 372 185 404T161 475Q161 515 186 545T250 591T332
607Q385 607 415 584T445 530Q445 508 430 494T397 480Q383 480 372 489T361 512Q361 519 367 531T373 552Q373 568 361 576T328 584Q288 584 265 556T241 476Q241 429 261 400T322 356L319 333Q306 335 282 335Q224 335 184 310T123 244T103 160Q103 94 147 56T264
18Q314 18 358 36T428 87T455 162Q455 200 434 221T377 243Q348 243 327 228T306 185Q306 177 307 169T309 153Q309 135 299 126T270 116Q228 116 228 163Q228 210 270 235T381 269L389 270Q439 276 467 287T496 328Q496 336 495 344T493 360Q493 378 503 387T531
397Q552 397 563 386T574 354Q574 317 537 290Z" />
<glyph unicode="&apos;" glyph-name="quotesingle" horiz-adv-x="132" d="M87 618T99 629T127 640Q154 640 154 607Q154 594 133 516L111 423Q108 409 94 409Q88 409 85 414T82 426L83 449L85 519Q85 546 87 600Q87 618 99 629Z" />
<glyph unicode="(" glyph-name="parenleft" horiz-adv-x="248" d="M15 317T83 450T274 711H318Q260 647 212 548T136 343T108 149Q108 47 128 -62T186 -231H142Q82 -144 49 -41T15 169Q15 317 83 450Z" />
<glyph unicode=")" glyph-name="parenright" horiz-adv-x="248" d="M240 163T172 30T-19 -231H-63Q-5 -167 43 -68T119 137T147 331Q147 433 127 542T69 711H113Q173 624 206 521T240 311Q240 163 172 30Z" />
<glyph unicode="*" glyph-name="asterisk" horiz-adv-x="327" d="M283 630T298 617T313 595Q313 584 304 574T285 564Q272 564 258 546T238 511Q246 506 263 506Q278 506 285 509T297 520Q302 525 306 527T318 530Q335 530 341 524T348 503Q348 475 339 465T308
454Q301 454 298 456T291 464Q286 471 280 474T259 478Q243 478 233 473Q232 462 239 445T253 424Q257 422 265 420T279 413T284 396Q284 384 265 369T230 354Q223 354 215 361T207 380Q207 384 210 392T214 407Q214 417 209 431T197 452Q185 443 176 427T166 402Q166
396 167 392T168 384Q168 371 157 363T137 354Q123 354 108 366T93 389Q93 403 102 412T121 421Q134 421 148 440T165 473Q160 478 142 478Q127 478 120 475T107 464Q103 459 99 457T87 454Q70 454 64 460T57 481Q57 509 66 519T97 530Q104 530 107 528T114 520Q119
513 125 510T146 506Q161 506 171 511Q173 526 167 543T150 561Q135 562 128 570T121 589Q121 603 140 616T175 630Q182 630 190 623T199 604Q199 599 195 591T190 577Q190 568 195 553T208 532Q219 539 229 556T239 583Q239 589 238 592T237 599Q237 612 249 621T269
630Q283 630 298 617Z" />
<glyph unicode="+" glyph-name="plus" horiz-adv-x="447" d="M288 488L262 303H440L434 259H256L230 73H179L205 259H27L33 303H211L237 488H288Z" />
<glyph unicode="," glyph-name="comma" horiz-adv-x="243" d="M127 92T142 75T157 27Q157 -28 116 -77T24 -160L7 -148Q37 -121 63 -86T89 -28Q89 -4 60 -4Q45 -4 39 6T32 30Q32 55 52 73T98 92Q127 92 142 75Z" />
<glyph unicode="-" glyph-name="hyphen" horiz-adv-x="253" d="M238 244L230 189H18L26 244H238Z" />
<glyph unicode="." glyph-name="period" horiz-adv-x="240" d="M34 68T54 86T105 105Q129 105 144 92T159 55Q159 26 139 8T89 -10Q64 -10 49 3T34 39Q34 68 54 86Z" />
<glyph unicode="/" glyph-name="slash" horiz-adv-x="241" d="M265 636L304 627L4 -5L-34 7L265 636Z" />
<glyph unicode="0" glyph-name="zero" horiz-adv-x="538" d="M417 607T471 547T526 373Q526 284 497 197T403 50T237 -10Q142 -10 89 49T36 221Q36 311 65 399T158 547T323 607Q417 607 471 547ZM121 221T121 180Q121 91 151 56T241 20Q318 20 364 82T433 298Q442
367 442 415Q442 506 412 543T320 580Q245 580 199 516T131 298Q121 221 121 180Z" />
<glyph unicode="1" glyph-name="one" horiz-adv-x="388" d="M219 43V38Q219 23 235 23L300 24L297 0H49L52 24L118 23Q139 23 142 43L205 497V501Q205 509 200 512T187 512L108 479L105 513Q166 530 231 576Q255 593 282 617H299L219 43Z" />
<glyph unicode="2" glyph-name="two" horiz-adv-x="506" d="M339 66T369 87T413 165H449Q408 36 400 -3Q391 0 347 0H20L24 45L156 156Q238 225 284 276T352 376T374 481Q374 529 351 554T283 580Q230 580 204 555T177 494Q177 486 179 474T182 454Q182 435 168
424T130 412Q109 412 98 425T87 463Q87 495 108 528T175 584T294 607Q370 607 416 572T463 478Q463 432 448 393T383 300T236 168L106 66H283Q339 66 369 87Z" />
<glyph unicode="3" glyph-name="three" horiz-adv-x="499" d="M234 318Q458 312 458 185Q458 127 426 83T337 15T203 -10Q149 -10 108 5T44 47T21 104Q21 131 36 148T78 165Q98 165 109 156T120 131Q120 118 111 102Q102 82 102 70Q102 45 129 31T198 17Q252 17
290 41T348 102T368 181Q368 236 321 265T173 299L177 327Q228 334 273 358T347 420T375 505Q375 539 351 559T285 580Q241 580 209 561T177 512Q177 506 180 496T183 478Q183 455 167 444T129 432Q107 432 97 443T86 473Q86 509 115 540T193 589T301 607Q375 607
419 578T464 501Q464 454 432 416T347 353T234 320V318Z" />
<glyph unicode="4" glyph-name="four" horiz-adv-x="470" d="M366 224H446L436 155H356L341 43V38Q341 23 357 23L403 24L400 0H172L175 24L242 23Q260 23 263 43L278 155H9L18 215Q38 231 52 245L85 276L350 554L370 576L394 604H419L366 224ZM325 488L74 224H288L325
488Z" />
<glyph unicode="5" glyph-name="five" horiz-adv-x="492" d="M162 531L122 331Q152 353 195 367T275 382Q357 382 404 342T452 224Q452 168 424 114T340 25T203 -10Q132 -10 79 22T25 112Q25 143 40 160T84 177Q101 177 112 168T124 141Q124 127 114 111Q105 93
105 82Q105 49 135 33T208 17Q261 17 295 51T345 133T361 220Q361 276 329 308T241 341Q202 341 166 326T108 288H81L139 597H403Q445 597 487 600Q474 579 463 531H162Z" />
<glyph unicode="6" glyph-name="six" horiz-adv-x="487" d="M370 399T414 355T458 238Q458 164 428 108T344 20T219 -11Q136 -11 93 40T49 189Q49 313 85 408T187 555T339 607Q375 607 405 595T453 561T471 516Q471 492 455 475T410 457Q392 457 381 465T370 488Q370
499 377 511Q384 525 384 536Q384 555 368 567T324 579Q257 579 211 505T148 317Q172 355 209 377T298 399Q370 399 414 355ZM309 14T340 88T372 246Q372 301 351 336T280 372Q226 372 192 336T142 248T126 151Q126 91 152 53T232 14Q309 14 340 88Z" />
<glyph unicode="7" glyph-name="seven" horiz-adv-x="428" d="M472 597L470 555Q223 317 205 0H111Q125 86 152 165T240 336T407 530H200Q156 530 134 517T103 472H67Q77 505 87 546T100 600Q113 597 219 597H472Z" />
<glyph unicode="8" glyph-name="eight" horiz-adv-x="494" d="M391 289T424 255T457 173Q457 119 426 78T337 13T204 -10Q124 -10 75 23T25 111Q25 175 74 227T197 305Q148 336 123 366T97 438Q97 488 125 526T204 586T322 607Q396 607 441 576T487 494Q487 440
443 392T329 327Q391 289 424 255ZM267 580T230 550T193 470Q193 430 221 403T307 340Q367 366 396 406T425 496Q425 534 398 557T325 580Q267 580 230 550ZM275 17T316 49T358 138Q358 172 338 199T291 246T220 291Q168 267 130 218T92 117Q92 72 125 45T213 17Q275
17 316 49Z" />
<glyph unicode="9" glyph-name="nine" horiz-adv-x="487" d="M376 607T419 556T463 407Q463 283 427 188T325 41T173 -11Q137 -11 107 1T59 35T41 80Q41 104 57 121T102 139Q120 139 131 131T142 108Q142 97 135 85Q128 71 128 60Q128 41 144 29T188 17Q255 17
301 91T364 279Q340 241 303 219T214 197Q142 197 98 241T54 358Q54 432 84 488T168 576T293 607Q376 607 419 556ZM286 224T320 260T370 348T386 445Q386 505 360 543T280 582Q203 582 172 508T140 350Q140 295 161 260T232 224Q286 224 320 260Z" />
<glyph unicode=":" glyph-name="colon" horiz-adv-x="244" d="M34 68T54 86T105 105Q129 105 144 92T159 55Q159 26 139 8T89 -10Q64 -10 49 3T34 39Q34 68 54 86ZM79 366T99 384T150 403Q174 403 189 390T204 353Q204 324 184 306T134 288Q109 288 94 301T79
337Q79 366 99 384Z" />
<glyph unicode=";" glyph-name="semicolon" horiz-adv-x="243" d="M139 92T154 75T169 27Q169 -28 128 -77T36 -160L19 -148Q49 -121 75 -86T101 -28Q101 -4 72 -4Q57 -4 51 6T44 30Q44 55 64 73T110 92Q139 92 154 75ZM66 366T86 384T137 403Q161 403 176 390T191
353Q191 324 171 306T121 288Q96 288 81 301T66 337Q66 366 86 384Z" />
<glyph unicode="&lt;" glyph-name="less" horiz-adv-x="446" d="M376 -10L64 203L67 226L439 441L432 391L163 236L118 216L157 194L383 40L376 -10Z" />
<glyph unicode="=" glyph-name="equal" horiz-adv-x="444" d="M428 345L422 302H46L52 345H428ZM400 146L394 103H18L24 146H400Z" />
<glyph unicode="&gt;" glyph-name="greater" horiz-adv-x="446" d="M84 446L396 233L393 210L21 -5L28 45L297 200L342 220L303 242L77 396L84 446Z" />
<glyph unicode="?" glyph-name="question" horiz-adv-x="392" d="M195 224T174 239T137 277T122 321Q122 347 144 373T215 442Q266 488 291 518T317 580Q317 607 296 625T234 643Q200 643 175 631T149 597Q149 591 151 583T154 570Q154 553 142 546T113 538Q92
538 82 550T72 579Q72 622 127 646T253 670Q323 670 364 644T406 572Q406 530 378 499T294 427Q244 391 219 364T193 301Q193 259 229 238L214 219Q195 224 174 239ZM123 -10T106 3T88 39Q88 65 109 85T161 105Q185 105 202 92T219 55Q219 26 197 8T146 -10Q123
-10 106 3Z" />
<glyph unicode="@" glyph-name="at" horiz-adv-x="718" d="M534 596T590 563T677 472T708 343Q708 240 660 160T547 35T435 -10Q411 -10 411 16Q411 43 418 89T439 187Q382 79 337 35T244 -10Q200 -10 176 22T152 112Q152 182 189 256T289 380T419 430Q440 430
453 421T476 391L481 411L563 428L540 330Q498 139 498 92Q498 75 509 75Q535 75 575 107T645 198T675 337Q675 400 648 453T571 536T458 567Q361 567 272 509T128 350T73 131Q73 57 103 2T190 -85T327 -116Q413 -116 483 -87T625 10L640 -13Q565 -84 488 -114T314
-145Q222 -145 155 -112T52 -16T16 132Q16 247 77 354T242 529T462 596Q534 596 590 563ZM373 400T332 357T264 241Q241 177 241 123Q241 45 291 45Q311 45 354 98T430 222T464 348Q464 369 452 384T421 400Q373 400 332 357Z" />
<glyph unicode="A" glyph-name="A" horiz-adv-x="580" d="M575 29L571 0H312L316 29L369 27Q396 26 396 58Q396 77 392 90L361 208H139L79 96Q58 58 58 41Q58 26 72 26L123 29L119 0H-51L-47 29L-16 27Q1 27 16 46T53 104L326 607H355L486 102Q497 61 507 44T536
27H541L575 29ZM154 236H353L288 484L154 236Z" />
<glyph unicode="B" glyph-name="B" horiz-adv-x="555" d="M444 597T482 567T521 476Q521 414 478 372T366 317Q429 317 470 278T511 180Q511 92 451 46T272 0H18L22 29L72 27Q87 27 90 49L160 549V552Q160 569 149 569L98 567L102 597H370Q444 597 482 567ZM266
569Q257 569 254 557L222 327H294Q359 327 392 365T425 471Q425 517 399 543T322 569H266ZM218 299L182 41L181 37Q181 28 192 28H260Q329 28 372 71T415 191Q415 299 316 299H218Z" />
<glyph unicode="C" glyph-name="C" horiz-adv-x="585" d="M49 355T90 436T208 562T388 607Q432 607 456 601T508 582Q529 573 545 569T584 564Q576 532 571 498T565 448Q565 434 566 433H540Q537 474 515 508T458 562T380 582Q313 582 261 537T179 414T150 240Q150
139 191 78T305 17Q372 17 428 59T507 167H538Q524 108 520 87T516 47V35H509Q489 35 471 31T426 16Q390 3 362 -3T297 -10Q180 -10 115 58T49 245Q49 355 90 436Z" />
<glyph unicode="D" glyph-name="D" horiz-adv-x="613" d="M456 597T522 542T588 362Q588 187 504 94T248 0H18L22 29L65 27Q77 27 81 49L151 548V553Q151 560 148 564T137 569L98 567L102 597H320Q456 597 522 542ZM256 569Q245 569 244 556L172 41L171 37Q171
28 180 28H224Q300 28 347 48T421 105T464 202Q487 287 487 373Q487 477 443 523T300 569H256Z" />
<glyph unicode="E" glyph-name="E" horiz-adv-x="545" d="M506 443H477Q480 461 480 475Q480 524 451 546T360 569H256Q246 569 244 555L212 325H302Q333 325 356 352T387 426H417L384 195H354Q356 211 356 218Q356 253 340 275T298 297H208L172 41V38Q172 28
180 28H316Q380 28 419 67T469 179H498L473 -3Q451 0 387 0H18L22 30L62 27Q78 27 81 49L151 548V553Q151 569 136 569L98 567L102 597H510Q523 597 528 599L506 443Z" />
<glyph unicode="F" glyph-name="F" horiz-adv-x="513" d="M516 443H487Q490 461 490 475Q490 524 461 546T369 569H256Q245 569 244 556L210 315H281Q315 315 339 342T371 417H400L367 187H338Q340 203 340 211Q340 246 323 266T277 287H207L173 48V44Q173 37
177 32T187 27L239 30L235 0H18L22 30L62 27Q78 27 81 49L151 548V554Q151 569 139 569L98 567L102 597H522Q533 597 538 599L516 443Z" />
<glyph unicode="G" glyph-name="G" horiz-adv-x="626" d="M441 607T472 599T534 578Q565 564 585 564Q579 544 573 501T567 433H525Q530 446 530 467Q530 525 490 553T381 582Q316 582 264 541T180 419T149 224Q149 119 189 68T306 17Q349 17 377 27T434 63L457
223V230Q457 245 443 245L385 243L389 272H615L611 243L569 245Q562 245 557 239T550 224L523 35Q517 36 509 36Q496 36 463 23Q427 8 390 -1T298 -10Q179 -10 114 53T49 239Q49 416 138 511T389 607Q441 607 472 599Z" />
<glyph unicode="H" glyph-name="H" horiz-adv-x="674" d="M676 567L636 569Q620 569 617 548L547 49V42Q547 27 560 27L600 29L596 0H381L385 29L434 27Q451 27 454 49L488 294H207L173 49V44Q173 27 188 27L237 29L233 0H18L22 29L61 27Q78 27 81 49L151 548L152
554Q152 570 137 569L98 567L102 597H317L313 567L264 569Q256 569 251 564T243 548L211 322H492L524 548V553Q524 569 510 569L461 567L465 597H680L676 567Z" />
<glyph unicode="I" glyph-name="I" horiz-adv-x="301" d="M303 567L264 569Q256 569 251 564T243 548L173 49V44Q173 27 188 27L227 29L223 0H18L22 29L61 27Q78 27 81 49L151 548V553Q151 560 148 564T137 569L98 567L102 597H307L303 567Z" />
<glyph unicode="J" glyph-name="J" horiz-adv-x="437" d="M443 567L406 569Q388 569 385 549L333 179Q306 -10 144 -10Q106 -10 64 0Q41 5 28 5Q6 5 -8 -4L17 172H54Q51 154 51 133Q51 84 70 50T132 16Q178 16 202 53T240 179L292 548V553Q292 569 279 569L210
567L214 597H447L443 567Z" />
<glyph unicode="K" glyph-name="K" horiz-adv-x="598" d="M529 570T499 540L328 365L512 41Q520 27 532 27Q533 27 566 30L562 0H330L334 30L388 27Q404 27 404 41Q404 46 401 52L262 298L199 234L173 49V44Q173 27 188 27L237 29L233 0H18L22 29L61 27Q78 27
81 49L151 548V553Q151 569 137 569L98 567L102 597H317L313 567L264 569Q246 569 243 547L206 281L459 548Q466 557 466 562Q466 569 459 569L417 567L421 597H596L592 567L553 569Q529 570 499 540Z" />
<glyph unicode="L" glyph-name="L" horiz-adv-x="498" d="M313 567L264 569Q256 569 251 564T243 548L172 41V38Q172 28 180 28H289Q355 28 394 64T443 171H471L447 -3Q428 0 326 0H18L22 30L65 27Q77 27 81 49L151 548V552Q151 560 148 564T137 569L98 567L102
597H317L313 567Z" />
<glyph unicode="M" glyph-name="M" horiz-adv-x="830" d="M827 567L793 569Q785 569 780 564T772 549L702 49V43Q702 27 717 27L756 29L752 0H537L541 29L590 27Q607 27 610 49L675 513L376 -10H350L179 520L113 49V42Q113 27 126 27L175 29L171 0H13L17 29L56
27Q74 27 77 49L149 563Q151 569 145 569L100 567L104 597H255L410 115L687 597H831L827 567Z" />
<glyph unicode="N" glyph-name="N" horiz-adv-x="641" d="M648 567L607 569Q592 569 589 548L511 -6H479L179 521L113 49V42Q113 27 126 27L175 29L171 0H13L17 29L56 27Q74 27 77 49L147 548V553Q147 560 143 564T132 569L93 567L97 597H249L498 158L553 549L554
555Q552 569 541 569L489 567L493 597H652L648 567Z" />
<glyph unicode="O" glyph-name="O" horiz-adv-x="649" d="M50 389T105 470T234 579T379 607Q472 607 547 554T623 356Q623 209 568 128T438 19T293 -10Q200 -10 125 44T50 242Q50 389 105 470ZM148 140T164 97T215 36T306 17Q425 17 478 139Q524 247 524 383Q524
457 508 500T457 561T366 580Q240 580 189 443Q148 335 148 215Q148 140 164 97Z" />
<glyph unicode="P" glyph-name="P" horiz-adv-x="507" d="M420 597T463 564T507 463Q507 404 482 359T410 289T303 263H203L173 49V44Q173 27 188 27L237 29L233 0H18L22 29L61 27Q78 27 81 49L151 547L152 554Q152 561 148 565T136 569L98 567L102 597H330Q420
597 463 564ZM256 569Q253 569 249 566T244 557L207 291H287Q320 291 348 313T394 374T411 458Q411 508 384 538T310 569H256Z" />
<glyph unicode="Q" glyph-name="Q" horiz-adv-x="649" d="M532 -98T582 -86L589 -112Q519 -156 466 -156Q421 -156 380 -121T293 -10Q200 -10 125 44T50 242Q50 389 105 470T234 579T379 607Q472 607 547 554T623 356Q623 181 547 99T364 -3Q403 -56 435 -77T504
-98Q532 -98 582 -86ZM148 140T164 97T215 36T306 17Q425 17 478 139Q524 247 524 383Q524 457 508 500T457 561T366 580Q240 580 189 443Q148 335 148 215Q148 140 164 97Z" />
<glyph unicode="R" glyph-name="R" horiz-adv-x="563" d="M415 597T460 566T505 468Q505 401 466 357T365 297Q416 290 440 257T464 172L462 117L460 69Q460 47 467 37T489 26Q501 26 510 32L518 13Q501 4 477 -3T431 -10Q400 -10 386 7T371 64Q371 80 372 92T374
114Q377 140 377 161Q377 223 343 253T253 286H206L173 41Q173 27 188 27L237 29L233 0H18L22 29L61 27Q78 27 81 49L150 542L151 551Q151 560 147 564T133 569L98 567L102 597H320Q415 597 460 566ZM256 569Q246 569 245 559L210 313H299Q350 313 381 354T412
465Q412 520 389 544T316 569H256Z" />
<glyph unicode="S" glyph-name="S" horiz-adv-x="479" d="M318 607T339 602T409 578Q424 572 434 572Q451 572 465 577Q464 573 459 558T450 518T446 458Q446 439 447 434H419Q421 450 421 458Q421 513 387 546T297 580Q242 580 207 553T171 481Q171 443 195 418T267
365L329 330Q381 300 409 265T438 176Q438 122 409 80T331 14T228 -10Q189 -10 139 3L114 9Q80 18 69 18Q56 18 41 15T20 10Q21 14 28 31T40 84T45 172Q45 199 44 203H71Q66 18 221 18Q252 18 280 33T326 74T343 132Q343 176 318 205T244 261L195 288Q141 318 112
352T83 441Q83 484 107 522T179 584T289 607Q318 607 339 602Z" />
<glyph unicode="T" glyph-name="T" horiz-adv-x="512" d="M530 443H502Q505 463 505 479Q505 525 481 547T403 569H363Q359 569 356 566T351 558L280 49V43Q280 27 294 27L347 29L343 0H109L113 29L167 27Q175 27 180 34T187 52L258 557V560Q258 569 250 569H210Q147
569 115 539T74 443H46L68 599Q84 597 108 597H512Q546 597 552 600L530 443Z" />
<glyph unicode="U" glyph-name="U" horiz-adv-x="631" d="M657 567L618 569Q602 569 599 549L548 189Q534 88 473 39T303 -10Q197 -10 141 33T84 161Q84 180 87 199L136 548V553Q136 560 133 564T123 569L84 567L88 597H303L299 567L250 569Q232 569 229 549L180
199Q177 180 177 163Q177 98 215 62T324 26Q409 26 454 68T512 198L561 548V553Q561 569 548 569L499 567L503 597H661L657 567Z" />
<glyph unicode="V" glyph-name="V" horiz-adv-x="564" d="M639 597L635 567L599 569Q593 569 589 564T577 546L275 -4H246L91 546Q85 569 73 569L45 567L49 597H259L255 567L202 569Q197 569 194 565T190 555Q190 551 192 545L311 134L536 546Q541 554 541 561Q541
569 532 569L481 567L485 597H639Z" />
<glyph unicode="W" glyph-name="W" horiz-adv-x="854" d="M929 597L925 567L894 569Q880 569 869 548L620 -10H602L471 505L242 -10H221L91 547Q87 569 75 569L45 567L49 597H260L256 567L200 569Q190 569 190 559L192 547L284 160L458 556V557Q456 563 453 566T443
569L402 567L406 597H609L605 567L561 569Q551 569 551 556Q551 550 552 547L657 145L832 549Q835 555 835 561Q835 569 826 569L774 567L778 597H929Z" />
<glyph unicode="X" glyph-name="X" horiz-adv-x="549" d="M578 597L574 567L543 569Q528 571 511 549L347 329L470 44Q474 37 480 32T496 27L535 30L531 0H301L305 30L354 27Q365 27 365 38Q365 44 362 51L272 261L113 47Q108 40 108 34Q108 27 114 27L160 30L156
0H-1L3 30L40 28Q58 28 74 50L258 295L147 550Q139 569 121 569L88 567L92 597H315L311 567L269 569Q257 569 254 562T254 548L332 363L471 549Q477 557 477 562Q477 565 475 567T468 569L425 567L429 597H578Z" />
<glyph unicode="Y" glyph-name="Y" horiz-adv-x="491" d="M555 597L551 567L521 569Q507 569 492 548L315 288L281 48V42Q281 27 296 27L344 29L340 0H116L120 29L169 27Q186 27 189 49L219 263L92 550Q87 561 83 565T73 569L45 567L49 597H265L261 567L208 569Q197
569 197 558Q197 554 200 545L299 319L456 549Q460 555 460 561Q460 569 453 569L402 567L406 597H555Z" />
<glyph unicode="Z" glyph-name="Z" horiz-adv-x="497" d="M502 574L113 28H280Q346 28 389 65T442 168H471L439 -4Q428 1 330 1H3L7 28L391 570H248Q179 570 142 540T95 444H66L88 601L137 600L195 598H505L502 574Z" />
<glyph unicode="[" glyph-name="bracketleft" horiz-adv-x="250" d="M283 675L279 648H178L70 -120H171L167 -147H-7L109 675H283Z" />
<glyph unicode="\" glyph-name="backslash" horiz-adv-x="242" d="M91 636L215 7L171 -5L50 627L91 636Z" />
<glyph unicode="]" glyph-name="bracketright" horiz-adv-x="250" d="M-18 -147L-14 -120H87L195 648H94L98 675H272L156 -147H-18Z" />
<glyph unicode="^" glyph-name="asciicircum" horiz-adv-x="443" d="M297 657L441 321H393L289 567L277 604L255 567L79 321H32L271 657H297Z" />
<glyph unicode="_" glyph-name="underscore" horiz-adv-x="503" d="M453 -143L447 -183H-56L-50 -143H453Z" />
<glyph unicode="`" glyph-name="grave" horiz-adv-x="266" d="M161 653T165 650T174 641T181 632L263 518Q272 504 272 501Q272 493 255 493Q246 493 237 502L98 615Q92 621 92 626Q92 633 113 643T152 653Q161 653 165 650Z" />
<glyph unicode="a" glyph-name="a" horiz-adv-x="466" d="M408 67T428 80L440 60Q410 24 377 7T318 -10Q304 -10 299 1T294 36Q294 65 315 187Q258 79 213 35T120 -10Q76 -10 52 22T28 112Q28 182 62 256T154 380T275 430Q299 430 319 420T353 393L359 415L443
429L419 330Q401 250 389 180T377 84Q377 67 390 67Q408 67 428 80ZM185 45T229 99T307 225T340 346Q340 369 322 384T277 400Q223 400 186 353T131 232Q117 180 117 123Q117 85 128 65T156 45Q185 45 229 99Z" />
<glyph unicode="b" glyph-name="b" horiz-adv-x="457" d="M196 730T204 725T213 708Q213 701 194 585Q154 334 142 240Q186 337 236 383T335 430Q381 430 408 395T435 301Q435 230 401 159T305 40T168 -7Q112 -7 83 16T53 84Q53 118 64 205T88 385Q100 469 110
546T120 651Q120 663 112 669T89 676Q78 676 63 673L57 698Q87 714 120 722T175 730Q196 730 204 725ZM271 375T229 326T155 210T123 95Q123 54 144 39T194 23Q245 23 279 66T331 174Q346 233 346 279Q346 322 333 348T299 375Q271 375 229 326Z" />
<glyph unicode="c" glyph-name="c" horiz-adv-x="406" d="M317 430T352 403T387 337Q387 314 374 296T332 278Q300 278 300 304Q300 313 308 329Q316 345 316 358Q316 378 301 389T263 400Q195 400 149 307Q115 237 115 158Q115 106 135 76T192 45Q219 45 251
60T324 100L346 84Q307 43 261 17T171 -9Q104 -9 65 33T26 145Q26 217 60 283T149 389T265 430Q317 430 352 403Z" />
<glyph unicode="d" glyph-name="d" horiz-adv-x="476" d="M470 693T463 651L457 617Q427 440 407 301T387 94Q387 67 404 67Q421 67 441 80L453 60Q419 24 387 7T331 -10Q314 -10 308 3T301 39Q301 100 316 186Q272 85 222 38T123 -10Q77 -10 50 25T23 120Q23
191 54 263T138 383T253 430Q284 430 308 419T346 391Q355 440 366 540T378 651Q378 675 343 675Q328 675 319 673L313 698Q370 730 432 730Q452 730 461 726T470 708Q470 693 463 651ZM187 45T229 95T302 212T334 326Q334 368 310 384T257 400Q208 400 174 356T124
245Q111 193 111 144Q111 98 125 72T159 45Q187 45 229 95Z" />
<glyph unicode="e" glyph-name="e" horiz-adv-x="399" d="M390 297T362 265T273 211T116 181Q115 172 115 154Q115 104 136 75T192 45Q237 45 324 100L346 84Q306 43 260 17T167 -9Q106 -9 66 34T26 147Q26 214 59 280T148 388T264 430Q318 430 354 402T390 332Q390
297 362 265ZM196 400T153 319Q127 268 120 213Q215 220 267 254T319 338Q319 364 305 382T262 400Q196 400 153 319Z" />
<glyph unicode="f" glyph-name="f" horiz-adv-x="284" d="M372 730T402 704T433 639Q433 617 422 603T386 588Q350 588 350 617Q350 624 354 638Q359 650 359 663Q359 680 350 691T319 703Q279 703 252 649T209 454L205 420H310V405L281 389H202L170 102Q131 -245
-37 -245Q-78 -245 -107 -227T-136 -178Q-136 -160 -125 -147T-91 -134Q-76 -134 -65 -140T-54 -162Q-54 -168 -57 -178T-60 -193Q-60 -205 -52 -211T-29 -218Q2 -218 22 -187T55 -94T80 72L115 389H29L56 420H119L121 440Q135 568 187 649T324 730Q372 730 402
704Z" />
<glyph unicode="g" glyph-name="g" horiz-adv-x="428" d="M452 505T461 494T471 467Q471 452 460 438T432 424Q420 424 415 427T404 439T392 447Q383 447 363 438T328 414Q379 385 379 319Q379 269 351 226T273 156T165 130Q135 130 111 138Q91 114 91 101Q91
84 111 74T174 52Q183 49 195 46T221 37Q276 18 305 5T355 -35T377 -102Q377 -171 305 -208T126 -245Q-36 -245 -36 -140Q-36 -97 -2 -61T87 3Q57 16 41 32T25 71Q25 92 39 108T81 143L88 148Q41 176 41 241Q41 291 69 334T146 404T253 430Q281 430 307 423Q337
456 374 480T430 505Q452 505 461 494ZM285 250T289 279T293 334Q293 367 279 385T233 403Q201 403 179 386T143 330Q135 310 131 281T127 226Q127 193 141 175T187 157Q219 157 241 174T277 230Q285 250 289 279ZM308 -88T275 -67T181 -27L120 -9Q79 -25 48 -59T16
-138Q16 -219 129 -219Q204 -219 256 -193T308 -125Q308 -88 275 -67Z" />
<glyph unicode="h" glyph-name="h" horiz-adv-x="499" d="M466 60Q435 28 403 9T348 -10Q334 -10 325 2T316 35Q316 52 323 89T338 166Q364 284 364 324Q364 347 353 361T321 375Q291 375 254 335T185 233T138 112L124 0H45Q64 119 98 362T133 651Q133 663 124
669T100 675Q85 675 76 673L70 698Q103 714 135 722T188 730Q208 730 217 726T226 708Q226 697 216 640Q213 620 210 602T204 566L187 464L152 222Q190 309 241 369T357 430Q398 430 422 405T446 340Q446 318 440 286T426 223T417 183Q398 105 398 90Q398 82 402
75T417 67Q434 67 454 80L466 60Z" />
<glyph unicode="i" glyph-name="i" horiz-adv-x="260" d="M200 643T212 632T225 602Q225 577 208 563T164 548Q143 548 130 559T116 589Q116 613 134 628T178 643Q200 643 212 632ZM181 27T153 9T102 -10Q84 -10 74 1T64 36Q64 53 70 93T78 147L90 223Q103 310
103 347Q103 361 94 367T72 373Q64 373 56 371L51 400Q114 426 165 426Q180 426 188 422T196 404Q196 396 184 334Q165 235 164 230Q148 139 148 94Q148 67 165 67Q181 67 201 80L213 60Q181 27 153 9Z" />
<glyph unicode="j" glyph-name="j" horiz-adv-x="242" d="M201 643T213 632T226 602Q226 577 209 563T165 548Q144 548 131 559T117 589Q117 613 135 628T179 643Q201 643 213 632ZM177 426T185 422T193 403Q185 355 163 211T134 11Q117 -115 77 -180T-37 -245Q-78
-245 -107 -227T-136 -178Q-136 -160 -125 -147T-91 -134Q-76 -134 -65 -140T-54 -162Q-54 -168 -57 -178T-60 -193Q-60 -205 -52 -211T-30 -218Q-3 -218 13 -188T39 -101T66 72L87 225Q100 321 100 342Q100 373 70 373Q61 373 53 371L48 400Q111 426 162 426Q177
426 185 422Z" />
<glyph unicode="k" glyph-name="k" horiz-adv-x="481" d="M448 60Q419 27 391 9T342 -10Q319 -10 307 2T286 40L229 206Q291 227 322 262T353 333Q353 353 344 364T321 375Q291 375 254 335T185 233T138 112L124 0H45Q64 119 98 362T133 651Q133 663 124 669T100
675Q85 675 76 673L70 698Q103 714 135 722T188 730Q208 730 217 726T226 708Q226 697 216 640Q213 620 210 602T204 566L187 464L152 222Q190 309 241 369T357 430Q393 430 415 409T437 357Q437 320 403 283T307 219L357 85Q365 60 382 60Q390 60 404 64T436 80L448
60Z" />
<glyph unicode="l" glyph-name="l" horiz-adv-x="236" d="M123 663T114 669T90 675Q75 675 66 673L60 698Q127 730 183 730Q199 730 207 726T216 708Q216 693 203 621L189 539Q167 403 150 276T130 94Q130 82 133 75T149 67Q156 67 167 70T190 80L202 60Q171 27
139 9T82 -10Q64 -10 54 1T43 36Q43 63 76 279L89 370Q123 599 123 651Q123 663 114 669Z" />
<glyph unicode="m" glyph-name="m" horiz-adv-x="761" d="M728 60Q697 28 665 9T610 -10Q594 -10 586 2T578 35Q578 52 585 89T600 166Q626 284 626 324Q626 347 615 361T583 375Q553 375 517 335T451 233T406 113L392 0H314Q335 125 347 206T360 328Q360 350
351 362T324 375Q295 375 260 338T193 242T144 127V125L129 0H51Q52 7 56 28Q76 148 87 225T98 341Q98 373 69 373Q61 373 53 371L48 400Q77 412 101 419T151 426Q188 426 188 407Q188 396 173 315Q170 292 166 271T159 230Q196 315 246 372T360 430Q395 430 418
405T441 340Q441 310 429 250Q514 430 619 430Q660 430 684 405T708 340Q708 318 702 286T688 223T679 183Q660 105 660 90Q660 82 664 75T679 67Q696 67 716 80L728 60Z" />
<glyph unicode="n" glyph-name="n" horiz-adv-x="504" d="M471 60Q440 28 408 9T353 -10Q339 -10 330 2T321 35Q321 52 328 89T343 166Q369 284 369 324Q369 347 358 361T326 375Q296 375 259 335T190 233T143 114L129 0H51Q52 7 56 28Q76 148 87 225T98 341Q98
373 69 373Q61 373 53 371L48 400Q77 412 101 419T151 426Q188 426 188 407Q188 395 173 309Q158 222 158 222Q194 309 246 369T362 430Q403 430 427 405T451 340Q451 318 445 286T431 223T422 183Q403 105 403 90Q403 82 407 75T422 67Q439 67 459 80L471 60Z"
/>
<glyph unicode="o" glyph-name="o" d="M350 430T386 385T423 264Q423 193 393 130T307 29T179 -10Q101 -10 65 35T28 156Q28 227 58 290T144 391T272 430Q350 430 386 385ZM219 398T189 366T140 285Q116 219 116 148Q116 86 136 54T193 22Q234 22 266 58T317 152Q335
211 335 272Q335 334 315 366T258 398Q219 398 189 366Z" />
<glyph unicode="p" glyph-name="p" horiz-adv-x="472" d="M395 430T422 395T450 300Q450 230 419 158T335 38T218 -10Q188 -10 164 1T126 30Q99 -157 98 -203Q98 -215 107 -215L170 -213L166 -239H-28L-24 -213L7 -215Q18 -214 21 -195Q38 -92 66 107T94 341Q94
373 65 373Q57 373 49 371L44 400Q73 412 97 419T147 426Q184 426 184 407Q184 395 164 285Q162 266 156 238Q200 337 250 383T348 430Q395 430 422 395ZM361 229T361 276Q361 322 347 348T312 375Q284 375 242 325T169 208T137 94Q137 52 161 36T214 20Q267 20
300 66T349 182Q361 229 361 276Z" />
<glyph unicode="q" glyph-name="q" horiz-adv-x="452" d="M415 335T393 198T357 -59T343 -202Q343 -215 352 -215L415 -213L411 -239H213L217 -213L248 -215Q259 -214 262 -195Q266 -165 275 -92Q298 88 315 183Q271 83 221 37T123 -10Q77 -10 50 25T23 120Q23
191 54 263T138 383T253 430Q313 430 341 390L347 411L439 428Q415 335 393 198ZM187 45T229 95T302 212T334 326Q334 368 310 384T257 400Q206 400 173 355T124 242Q112 187 112 144Q112 98 125 72T159 45Q187 45 229 95Z" />
<glyph unicode="r" glyph-name="r" horiz-adv-x="368" d="M337 430T356 409T375 358Q375 335 362 317T323 298Q307 298 298 305T289 326Q289 335 295 346T301 363Q301 370 296 375T283 380Q260 380 231 336T178 225T141 96L129 0H51Q52 7 56 28Q76 148 87 225T98
341Q98 373 69 373Q61 373 53 371L48 400Q77 412 101 419T151 426Q188 426 188 407Q188 391 172 309L163 255Q193 332 228 381T307 430Q337 430 356 409Z" />
<glyph unicode="s" glyph-name="s" horiz-adv-x="352" d="M277 287T267 294T256 313Q256 326 263 338Q269 352 269 362Q269 381 253 392T207 403Q167 403 142 382T116 329Q117 300 139 281T208 239Q262 212 290 187T318 121Q318 59 266 25T138 -10Q72 -10 33 16T-7
81Q-7 106 7 121T45 137Q61 137 72 130T84 111Q84 100 76 84Q69 65 69 58Q69 39 87 28T141 17Q181 17 209 35T238 91Q237 118 216 135T150 174Q95 201 66 227T37 298Q37 335 60 365T123 413T208 430Q268 430 306 404T345 341Q345 317 331 302T292 287Q277 287 267
294Z" />
<glyph unicode="t" glyph-name="t" horiz-adv-x="322" d="M177 254Q156 130 156 91Q156 51 184 51Q215 51 264 100L286 84Q253 40 218 16T140 -9Q103 -9 86 9T69 57Q69 81 86 186L92 226L118 389H43L70 420H123L140 524L230 540L207 420H314V405L285 389H201L177 254Z" />
<glyph unicode="u" glyph-name="u" horiz-adv-x="489" d="M463 60Q429 23 397 7T338 -10Q324 -10 319 1T314 36Q314 64 331 179Q275 76 230 33T136 -10Q96 -10 75 12T54 70Q54 107 84 240Q104 327 104 346Q104 373 67 373Q55 373 47 371L42 400Q83 414 107 420T157
426Q189 426 189 407Q189 393 169 295Q157 238 147 180T136 99Q136 75 144 60T170 45Q198 45 234 84T301 181T348 292L366 411L458 428Q426 263 413 189T400 84Q400 67 413 67Q431 67 451 80L463 60Z" />
<glyph unicode="v" glyph-name="v" horiz-adv-x="411" d="M371 429T387 413T404 368Q404 323 367 250T278 104T185 -5H158L74 341Q70 359 63 366T41 374Q31 374 16 371L11 400Q34 410 60 418T104 426Q123 426 135 414T153 368L217 78Q269 138 308 206T348 315Q348
329 341 333T315 339Q302 340 295 351T287 381Q287 429 340 429Q371 429 387 413Z" />
<glyph unicode="w" glyph-name="w" horiz-adv-x="662" d="M622 429T638 413T655 368Q655 323 618 250T529 104T436 -5H409L356 228Q320 161 272 95T185 -5H158L74 341Q70 359 63 366T41 374Q31 374 16 371L11 400Q34 410 60 418T104 426Q123 426 135 414T153 368L217
79Q259 127 295 184T343 284L324 353Q319 371 312 391T301 420H393L468 79Q520 139 559 208T599 315Q599 329 592 333T566 339Q553 340 546 351T538 381Q538 429 591 429Q622 429 638 413Z" />
<glyph unicode="x" glyph-name="x" horiz-adv-x="471" d="M359 346T353 343T339 329L272 229L335 81Q339 72 343 69T355 66Q373 66 415 85L427 65Q393 31 361 11T309 -10Q297 -10 289 -4T273 17L214 154L145 49Q106 -10 51 -10Q9 -10 9 33Q9 54 21 69T52 84Q63
84 81 74Q95 65 106 65Q114 66 120 70T134 84L201 184L134 341Q125 361 120 367T101 374Q83 374 56 371L51 400Q79 411 111 418T164 426Q180 426 189 415T213 368L259 259L328 363Q367 422 422 422Q464 422 464 379Q464 358 452 343T421 328Q410 328 392 338Q378
347 367 347Q359 346 353 343Z" />
<glyph unicode="y" glyph-name="y" horiz-adv-x="411" d="M371 429T387 413T404 368Q404 320 363 225T263 39Q195 -67 129 -129T15 -215T-58 -239Q-80 -239 -94 -231T-108 -195Q-108 -176 -95 -161T-63 -145Q-51 -145 -29 -157Q-20 -162 -11 -165T8 -169Q18 -169
43 -152T105 -100T181 -15L74 341Q70 359 63 366T41 374Q31 374 16 371L11 400Q34 410 60 418T104 426Q122 426 133 414T153 368L239 66Q287 138 319 206T351 315Q351 330 345 333T315 339Q302 340 295 351T287 381Q287 429 340 429Q371 429 387 413Z" />
<glyph unicode="z" glyph-name="z" horiz-adv-x="376" d="M295 50T325 84L341 70Q321 34 294 12T222 -10Q203 -10 188 -6T152 8Q118 23 97 23Q66 23 31 2L21 -10L17 -7V-7L-1 7L277 337Q259 335 252 335Q231 335 215 340T180 355Q161 364 151 367T128 371Q93 371
58 337L42 351Q63 387 93 409T170 431Q189 431 203 427T237 416Q265 405 284 405Q314 405 352 427L354 429L376 411L108 93Q129 103 150 103Q170 103 184 96T217 74Q232 62 242 56T266 50Q295 50 325 84Z" />
<glyph unicode="{" glyph-name="braceleft" horiz-adv-x="273" d="M291 645H263Q227 645 219 589L186 358Q179 313 157 295T79 267Q126 256 144 243T163 199Q163 177 144 59Q126 -63 126 -78Q126 -116 156 -116H184L179 -146H144Q95 -146 76 -133T57 -86Q57 -68
75 50Q95 178 95 205Q95 230 83 239T35 257L38 277Q77 283 95 301T118 358L150 582Q157 636 180 655T260 675H295L291 645Z" />
<glyph unicode="|" glyph-name="bar" horiz-adv-x="226" d="M166 730H204L68 -239H30L166 730Z" />
<glyph unicode="}" glyph-name="braceright" horiz-adv-x="283" d="M7 -116H35Q71 -116 79 -60L112 171Q119 216 141 234T219 262Q172 273 154 286T135 330Q135 352 154 470Q172 592 172 607Q172 645 142 645H114L119 675H154Q203 675 222 662T241 615Q241 597
223 479Q203 351 203 324Q203 299 215 290T263 272L260 252Q221 246 203 228T180 171L148 -53Q141 -107 118 -126T38 -146H3L7 -116Z" />
<glyph unicode="~" glyph-name="asciitilde" horiz-adv-x="409" d="M400 292Q376 256 346 236T286 215Q265 215 247 223T200 250Q175 266 161 273T131 280Q112 280 96 268T53 219L28 255Q76 328 137 328Q158 328 177 320T224 293Q247 278 262 271T293 263Q311
263 329 277T374 329L400 292Z" />
<glyph unicode="&#xa0;" glyph-name="uni00A0" horiz-adv-x="220" />
<glyph unicode="&#xa1;" glyph-name="exclamdown" horiz-adv-x="262" d="M167 445T183 430T200 394Q200 368 179 349T129 330Q104 330 88 344T71 381Q71 406 93 425T142 445Q167 445 183 430ZM123 234T124 231T126 218L123 180Q122 166 118 100T114 -34Q117 -97
117 -139Q117 -191 107 -216T58 -242Q16 -242 14 -203Q14 -187 24 -140T53 -34Q70 30 83 102T103 218Q104 234 117 234Q123 234 124 231Z" />
<glyph unicode="&#xa2;" glyph-name="cent" horiz-adv-x="382" d="M235 137T267 161T317 223L336 209Q321 173 290 148T223 117L194 -95H156L185 116Q57 123 57 258Q57 319 79 365T142 438T235 467L260 647H297L271 464Q306 457 327 437T348 392Q348 372 335 359T306
345Q275 345 275 365Q275 376 282 385Q290 395 290 409Q290 426 274 435T235 445Q131 445 131 244Q131 191 149 164T201 137Q235 137 267 161Z" />
<glyph unicode="&#xa3;" glyph-name="sterling" horiz-adv-x="491" d="M329 73T356 81T397 110T417 168H444L411 -3Q397 -3 386 -2L334 0H87Q58 0 -2 -3L-3 1Q39 26 67 67T103 156L124 306H47L50 329H128L139 410Q153 513 200 560T338 607Q386 607 417 585T449
528Q449 508 434 494T401 480Q387 480 376 489T365 511Q365 520 371 532Q377 544 377 552Q377 584 329 584Q299 584 281 573T250 539Q239 518 236 491T230 420Q228 377 225 356L222 329H338L335 306H219L209 226Q204 188 171 140T108 73H278Q329 73 356 81Z" />
<glyph unicode="&#xa4;" glyph-name="currency" horiz-adv-x="427" d="M389 332T389 284Q389 248 375 215T334 155L372 107L345 83L306 131Q254 95 197 95Q140 95 100 133L45 84L25 108L80 157Q54 195 54 245Q54 281 68 314T108 374L70 421L96 445L136 398Q187
436 245 436Q305 436 345 396L397 444L417 420L364 373Q389 332 389 284ZM241 127T276 148T333 206T355 283Q355 334 323 369T241 404Q202 404 167 383T110 326T88 249Q88 198 120 163T202 127Q241 127 276 148Z" />
<glyph unicode="&#xa5;" glyph-name="yen" horiz-adv-x="491" d="M555 597L551 567L521 569Q507 569 492 548L351 341H450L446 312H331L315 288L307 231H435L431 202H303L281 48V42Q281 27 296 27L344 29L340 0H116L120 29L169 27Q186 27 189 49L210 202H83L87
231H215L219 263L197 312H98L102 341H184L92 550Q87 561 83 565T73 569L45 567L49 597H265L261 567L208 569Q197 569 197 558Q197 554 200 545L299 319L456 549Q460 555 460 561Q460 569 453 569L402 567L406 597H555Z" />
<glyph unicode="&#xa6;" glyph-name="brokenbar" horiz-adv-x="226" d="M149 607H189L141 265H101L149 607ZM119 113L71 -231H31L79 113H119Z" />
<glyph unicode="&#xa7;" glyph-name="section" horiz-adv-x="436" d="M352 458T342 466T331 490Q331 500 334 506T346 521Q351 525 354 530T358 543Q358 560 334 572T279 584Q238 584 208 561T177 498Q177 477 189 462T225 428L337 343Q374 316 391 292T408 237Q408
140 301 105Q327 81 338 60T350 13Q350 -30 326 -63T257 -116T156 -135Q94 -135 57 -113T19 -53Q19 -23 37 -5T80 14Q96 14 106 6T117 -18Q117 -28 114 -34T102 -49Q97 -53 94 -58T90 -71Q90 -88 114 -100T169 -112Q210 -112 240 -89T271 -26Q271 -5 259 10T223
44L111 129Q74 156 57 180T40 235Q40 332 147 367Q121 391 110 412T98 459Q98 502 122 535T191 588T292 607Q354 607 391 585T429 525Q429 495 411 477T368 458Q352 458 342 466ZM166 350Q135 337 123 321T110 279Q110 266 118 254T145 227L260 139L282 122Q313
135 325 151T338 193Q338 206 330 218T303 245L188 333L166 350Z" />
<glyph unicode="&#xa8;" glyph-name="dieresis" horiz-adv-x="282" d="M392 643T404 632T417 602Q417 577 400 563T356 548Q335 548 322 559T308 589Q308 613 326 628T370 643Q392 643 404 632ZM310 643T322 632T335 602Q335 577 318 563T274 548Q253 548 240
559T226 589Q226 613 244 628T288 643Q310 643 322 632Z" />
<glyph unicode="&#xa9;" glyph-name="copyright" horiz-adv-x="697" d="M476 607T538 571T636 473T672 336Q672 261 636 181T521 46T323 -10Q246 -10 184 26T87 123T51 260Q51 335 87 415T202 551T399 607Q476 607 538 571ZM83 197T114 141T201 53T326 20Q434
20 504 71T606 195T638 332Q638 400 606 456T519 544T394 577Q287 577 217 526T115 402T83 265Q83 197 114 141ZM413 471T428 468T460 457Q470 453 481 450T506 447Q504 438 501 417T497 375H478Q475 406 451 428T395 451Q356 451 330 420T292 346T279 273Q279
222 302 188T360 153Q396 153 423 174T462 229H484L479 201Q476 188 476 179T475 156H471Q454 156 419 145Q373 131 344 131Q301 131 266 150T212 203T192 278Q192 318 212 363T276 439T389 471Q413 471 428 468Z" />
<glyph unicode="&#xaa;" glyph-name="ordfeminine" horiz-adv-x="255" d="M28 453T69 479T201 505L204 528Q207 549 207 556Q207 592 165 592Q123 592 123 562Q123 529 88 529Q60 529 60 555Q60 583 87 599T168 615Q219 615 242 598T266 544Q266 531 264 519L244
380Q243 373 247 373L278 374L274 350H180L187 387Q158 342 101 342Q28 342 28 400Q28 453 69 479ZM93 390T100 382T121 373Q146 373 167 397T194 457L198 482Q143 482 118 464T93 407Q93 390 100 382Z" />
<glyph unicode="&#xab;" glyph-name="guillemotleft" horiz-adv-x="441" d="M392 358L274 187L344 16H307L188 187L355 358H392ZM480 358L362 187L432 16H395L276 187L443 358H480Z" />
<glyph unicode="&#xac;" glyph-name="logicalnot" horiz-adv-x="440" d="M442 360L412 146H367L391 319H34L40 360H442Z" />
<glyph unicode="&#xad;" glyph-name="uni00AD" horiz-adv-x="253" d="M238 244L230 189H18L26 244H238Z" />
<glyph unicode="&#xae;" glyph-name="registered" horiz-adv-x="464" d="M315 607T361 582T434 513T461 413Q461 359 434 315T361 246T261 220Q206 220 160 245T88 315T61 413Q61 468 87 512T160 582T261 607Q315 607 361 582ZM212 581T173 560T112 500T90 413Q90
365 112 327T173 268T260 246Q308 246 347 267T408 327T431 413Q431 462 409 500T347 559T260 581Q212 581 173 560ZM268 514Q307 514 326 503T345 466Q345 444 330 430T289 411Q312 411 331 396T350 356Q350 328 370 334V317H333Q292 317 292 348V362Q292 381
281 390T253 400H243V342Q243 335 250 335H267V317H166V335H178Q184 335 184 342V489Q184 496 176 496H166V514H268ZM248 496Q243 496 243 493V419H262Q274 419 280 430T287 459Q287 496 257 496H248Z" />
<glyph unicode="&#xaf;" glyph-name="overscore" horiz-adv-x="442" d="M398 607L392 567H150L156 607H398Z" />
<glyph unicode="&#xb0;" glyph-name="degree" horiz-adv-x="362" d="M127 543T159 575T236 607Q273 607 295 583T318 519Q318 475 286 443T209 411Q172 411 150 435T127 498Q127 543 159 575ZM170 480T182 467T215 453Q239 453 256 471T273 516Q273 538 261 551T230
565Q205 565 188 547T170 502Q170 480 182 467Z" />
<glyph unicode="&#xb1;" glyph-name="plusminus" horiz-adv-x="446" d="M286 506L259 315H441L436 274H254L226 80H180L208 274H28L33 315H213L240 506H286ZM403 41L397 0H-11L-5 41H403Z" />
<glyph unicode="&#xb2;" glyph-name="uni00B2" horiz-adv-x="262" d="M227 454T240 459T259 480H279Q271 461 265 436T258 401Q250 403 227 403H56L60 447L124 493Q167 524 187 546T214 585T220 626Q220 660 188 660Q169 660 161 652T153 634Q153 629 154 622T154
609Q152 597 141 590T115 583Q98 583 90 591T82 614Q82 640 113 659T193 678Q238 678 266 662T294 616Q294 594 286 578T250 541T165 488L104 454H199Q227 454 240 459Z" />
<glyph unicode="&#xb3;" glyph-name="uni00B3" horiz-adv-x="251" d="M230 678T257 665T285 626Q285 595 254 575T177 550L176 547Q228 546 255 531T283 488Q283 448 242 423T141 397Q98 397 71 411T43 448Q43 464 54 475T86 486Q100 486 108 480T116 463Q116
459 113 449T109 436Q109 426 119 421T143 416Q172 416 190 436T208 486Q208 510 187 521T113 537L115 553Q156 553 183 577T210 630Q210 643 202 651T178 660Q162 660 153 653T144 635L145 620Q145 605 134 598T106 590Q90 590 82 598T74 618Q74 646 108 662T188
678Q230 678 257 665Z" />
<glyph unicode="&#xb4;" glyph-name="acute" horiz-adv-x="266" d="M290 623T280 615L109 502Q97 493 88 493Q74 493 74 500Q74 504 83 513T94 524L201 632Q213 645 219 649T236 653Q253 653 271 644T290 627Q290 623 280 615Z" />
<glyph unicode="&#xb5;" glyph-name="uni00B5" horiz-adv-x="493" d="M467 60Q433 23 401 7T342 -10Q328 -10 323 1T318 36Q318 64 335 179Q279 76 234 33T140 -10Q132 -10 120 -8L93 -195V-200Q93 -206 96 -210T104 -214L149 -213L145 -239H-56L-52 -213L-6 -214Q-1
-213 3 -208T9 -195L91 377L92 384Q92 396 82 396L46 394L50 420H183L140 129H141Q139 117 139 99Q139 45 174 45Q202 45 238 84T305 181T352 292L370 411L462 428Q430 263 417 189T404 84Q404 67 417 67Q435 67 455 80L467 60Z" />
<glyph unicode="&#xb6;" glyph-name="paragraph" horiz-adv-x="484" d="M59 501T117 549T275 597H518L514 566H417L299 -269H262L380 566H342Q307 566 301 528L189 -269H152L230 288Q148 288 104 322T59 421Q59 501 117 549Z" />
<glyph unicode="&#xb7;" glyph-name="middot" horiz-adv-x="244" d="M56 205T76 223T127 242Q151 242 166 229T181 192Q181 163 161 145T111 127Q86 127 71 140T56 176Q56 205 76 223Z" />
<glyph unicode="&#xb8;" glyph-name="cedilla" horiz-adv-x="227" d="M81 -43Q72 -55 72 -63Q72 -69 78 -72T100 -79Q123 -86 134 -93T146 -117Q146 -159 119 -186T42 -214Q-2 -214 -24 -198L-12 -171Q-2 -187 20 -187Q43 -187 60 -170T78 -130Q78 -113 53 -94L33
-80Q23 -73 23 -66Q23 -60 32 -52L77 0H112L81 -43Z" />
<glyph unicode="&#xb9;" glyph-name="uni00B9" horiz-adv-x="192" d="M166 439L165 434Q165 421 176 421L206 422L203 404H50L53 422L94 421Q103 421 106 439L129 604V607Q129 616 123 616Q120 616 106 611T84 603L83 629Q107 635 127 648T173 683H200L166 439Z" />
<glyph unicode="&#xba;" glyph-name="ordmasculine" horiz-adv-x="339" d="M77 531T118 574T226 618Q278 618 307 588T337 504Q337 431 297 388T187 344Q132 344 105 375T77 458Q77 531 118 574ZM146 398T156 383T191 368Q227 368 247 400T267 527Q267 563 257
578T222 594Q186 594 166 559T146 432Q146 398 156 383Z" />
<glyph unicode="&#xbb;" glyph-name="guillemotright" horiz-adv-x="441" d="M27 16L145 187L75 358H112L231 187L64 16H27ZM195 16L313 187L243 358H280L399 187L232 16H195Z" />
<glyph unicode="&#xbc;" glyph-name="onequarter" horiz-adv-x="559" d="M222 333H69L72 351L113 350Q122 350 125 368L148 533V536Q148 545 142 545Q139 545 125 540T103 532L102 558Q126 564 146 577T192 612H219L185 368L184 363Q184 350 195 350L225 351L222
333ZM519 607L551 586L64 -5L33 19L519 607ZM478 102H514L509 65H473L468 30V28Q468 21 476 21H496L493 0H353L356 21H389Q398 21 399 30L404 65H277L282 98L469 274H502L478 102ZM319 102H409L423 198L319 102Z" />
<glyph unicode="&#xbd;" glyph-name="onehalf" horiz-adv-x="615" d="M519 607L551 586L64 -5L33 19L519 607ZM185 624L184 619Q184 606 195 606L225 607L222 589H69L72 607L113 606Q122 606 125 624L148 789V792Q148 801 142 801Q139 801 125 796T103 788L102
814Q126 820 146 833T192 868H219L185 624ZM519 51T532 56T551 77H571Q563 58 557 33T550 -2Q542 0 519 0H348L352 44L416 90Q459 121 479 143T506 182T512 223Q512 257 480 257Q461 257 453 249T445 231Q445 226 446 219T446 206Q444 194 433 187T407 180Q390
180 382 188T374 211Q374 237 405 256T485 275Q530 275 558 259T586 213Q586 191 578 175T542 138T457 85L396 51H491Q519 51 532 56Z" />
<glyph unicode="&#xbe;" glyph-name="threequarters" horiz-adv-x="559" d="M529 607L561 586L74 -5L43 19L529 607ZM112 326T85 340T57 377Q57 393 68 404T100 415Q114 415 122 409T130 392Q130 388 127 378T123 365Q123 355 133 350T157 345Q186 345 204 365T222
415Q222 439 201 450T127 466L129 482Q170 482 197 506T224 559Q224 572 216 580T192 589Q176 589 167 582T158 564L159 549Q159 534 148 527T120 519Q104 519 96 527T88 547Q88 575 122 591T202 607Q244 607 271 594T299 555Q299 524 268 504T191 479L190 476Q242
475 269 460T297 417Q297 377 256 352T155 326Q112 326 85 340ZM478 102H514L509 65H473L468 30V28Q468 21 476 21H496L493 0H353L356 21H389Q398 21 399 30L404 65H277L282 98L469 274H502L478 102ZM319 102H409L423 198L319 102Z" />
<glyph unicode="&#xbf;" glyph-name="questiondown" horiz-adv-x="389" d="M269 445T286 432T304 396Q304 370 283 350T231 330Q207 330 190 343T173 380Q173 409 195 427T246 445Q269 445 286 432ZM197 211T218 196T255 158T270 114Q270 88 248 62T177 -7Q126
-53 101 -83T75 -145Q75 -172 96 -190T158 -208Q192 -208 217 -196T243 -162Q243 -156 241 -148T238 -135Q238 -118 250 -111T279 -103Q300 -103 310 -115T320 -144Q320 -187 265 -211T139 -235Q69 -235 28 -209T-14 -137Q-14 -95 14 -64T98 8Q148 44 173 71T199
134Q199 176 163 197L178 216Q197 211 218 196Z" />
<glyph unicode="&#xc0;" glyph-name="Agrave" horiz-adv-x="580" d="M575 29L571 0H312L316 29L369 27Q396 26 396 58Q396 77 392 90L361 208H139L79 96Q58 58 58 41Q58 26 72 26L123 29L119 0H-51L-47 29L-16 27Q1 27 16 46T53 104L326 607H355L486 102Q497 61
507 44T536 27H541L575 29ZM154 236H353L288 484L154 236ZM310 826T314 823T323 814T330 805L412 691Q421 677 421 674Q421 666 404 666Q395 666 386 675L247 788Q241 794 241 799Q241 806 262 816T301 826Q310 826 314 823Z" />
<glyph unicode="&#xc1;" glyph-name="Aacute" horiz-adv-x="580" d="M575 29L571 0H312L316 29L369 27Q396 26 396 58Q396 77 392 90L361 208H139L79 96Q58 58 58 41Q58 26 72 26L123 29L119 0H-51L-47 29L-16 27Q1 27 16 46T53 104L326 607H355L486 102Q497 61
507 44T536 27H541L575 29ZM154 236H353L288 484L154 236ZM508 796T498 788L327 675Q315 666 306 666Q292 666 292 673Q292 677 301 686T312 697L419 805Q431 818 437 822T454 826Q471 826 489 817T508 800Q508 796 498 788Z" />
<glyph unicode="&#xc2;" glyph-name="Acircumflex" horiz-adv-x="580" d="M575 29L571 0H312L316 29L369 27Q396 26 396 58Q396 77 392 90L361 208H139L79 96Q58 58 58 41Q58 26 72 26L123 29L119 0H-51L-47 29L-16 27Q1 27 16 46T53 104L326 607H355L486 102Q497
61 507 44T536 27H541L575 29ZM154 236H353L288 484L154 236ZM209 666T209 673Q209 677 236 698Q243 704 261 719T295 749L345 797Q372 822 379 822Q382 822 389 815T405 797L441 749Q460 724 490 694Q506 678 506 674Q506 671 503 669T493 666Q483 666 466 678L369
751L249 678Q227 666 220 666Q209 666 209 673Z" />
<glyph unicode="&#xc3;" glyph-name="Atilde" horiz-adv-x="580" d="M575 29L571 0H312L316 29L369 27Q396 26 396 58Q396 77 392 90L361 208H139L79 96Q58 58 58 41Q58 26 72 26L123 29L119 0H-51L-47 29L-16 27Q1 27 16 46T53 104L326 607H355L486 102Q497 61
507 44T536 27H541L575 29ZM154 236H353L288 484L154 236ZM316 767T376 745Q429 724 451 724Q465 724 476 736T490 766H510Q505 729 483 702T433 675Q418 675 399 680T350 697Q297 718 275 718Q261 718 250 706T236 676H216Q221 713 243 740T293 767Q316 767 376
745Z" />
<glyph unicode="&#xc4;" glyph-name="Adieresis" horiz-adv-x="580" d="M575 29L571 0H312L316 29L369 27Q396 26 396 58Q396 77 392 90L361 208H139L79 96Q58 58 58 41Q58 26 72 26L123 29L119 0H-51L-47 29L-16 27Q1 27 16 46T53 104L326 607H355L486 102Q497
61 507 44T536 27H541L575 29ZM154 236H353L288 484L154 236ZM308 772T320 761T333 731Q333 706 316 692T272 677Q251 677 238 688T224 718Q224 742 242 757T286 772Q308 772 320 761ZM482 772T494 761T507 731Q507 706 490 692T446 677Q425 677 412 688T398 718Q398
742 416 757T460 772Q482 772 494 761Z" />
<glyph unicode="&#xc5;" glyph-name="Aring" horiz-adv-x="580" d="M575 29L571 0H312L316 29L369 27Q396 26 396 58Q396 77 392 90L361 208H139L79 96Q58 58 58 41Q58 26 72 26L123 29L119 0H-51L-47 29L-16 27Q1 27 16 46T53 104L326 607H355L486 102Q497 61
507 44T536 27H541L575 29ZM154 236H353L288 484L154 236ZM287 776T314 802T379 829Q413 829 431 810T450 758Q450 718 424 692T356 666Q323 666 305 685T287 738Q287 776 314 802ZM332 724T339 713T361 702Q379 702 391 717T404 754Q404 772 397 782T374 793Q356
793 344 778T332 742Q332 724 339 713Z" />
<glyph unicode="&#xc6;" glyph-name="AE" horiz-adv-x="818" d="M789 443H761Q763 454 763 474Q763 523 734 546T643 569H487L496 324H575Q605 324 629 352T660 426H689L656 195H627Q629 211 629 219Q629 254 613 275T571 297H496L506 46Q509 27 523 27H587Q722
27 741 171H770L746 -3Q710 0 660 0H326L330 30L386 27H388Q396 27 401 33T409 47L403 208H168L77 80Q60 56 60 39Q60 27 71 27L125 30L121 0H-51L-47 30L-12 27Q-2 27 12 41T49 86L383 543Q386 548 386 552Q386 557 382 562T373 567L322 565L327 597H777Q795 597
811 599L789 443ZM390 511L188 236H401L390 511Z" />
<glyph unicode="&#xc7;" glyph-name="Ccedilla" horiz-adv-x="585" d="M576 532T571 498T565 448Q565 434 566 433H540Q537 474 515 508T458 562T380 582Q313 582 261 537T179 414T150 240Q150 139 191 78T305 17Q372 17 428 59T507 167H538Q524 108 520 87T516
47V35H509Q489 35 471 31T426 16Q390 3 362 -3T297 -10H284L260 -43Q251 -55 251 -63Q251 -69 257 -72T279 -79Q302 -86 313 -93T325 -117Q325 -159 298 -186T221 -214Q177 -214 155 -198L167 -171Q177 -187 199 -187Q222 -187 239 -170T257 -130Q257 -113 232
-94L212 -80Q202 -73 202 -66Q202 -60 211 -52L250 -7Q154 6 102 72T49 245Q49 355 90 436T208 562T388 607Q432 607 456 601T508 582Q529 573 545 569T584 564Q576 532 571 498Z" />
<glyph unicode="&#xc8;" glyph-name="Egrave" horiz-adv-x="545" d="M506 443H477Q480 461 480 475Q480 524 451 546T360 569H256Q246 569 244 555L212 325H302Q333 325 356 352T387 426H417L384 195H354Q356 211 356 218Q356 253 340 275T298 297H208L172 41V38Q172
28 180 28H316Q380 28 419 67T469 179H498L473 -3Q451 0 387 0H18L22 30L62 27Q78 27 81 49L151 548V553Q151 569 136 569L98 567L102 597H510Q523 597 528 599L506 443ZM293 826T297 823T306 814T313 805L395 691Q404 677 404 674Q404 666 387 666Q378 666 369
675L230 788Q224 794 224 799Q224 806 245 816T284 826Q293 826 297 823Z" />
<glyph unicode="&#xc9;" glyph-name="Eacute" horiz-adv-x="545" d="M506 443H477Q480 461 480 475Q480 524 451 546T360 569H256Q246 569 244 555L212 325H302Q333 325 356 352T387 426H417L384 195H354Q356 211 356 218Q356 253 340 275T298 297H208L172 41V38Q172
28 180 28H316Q380 28 419 67T469 179H498L473 -3Q451 0 387 0H18L22 30L62 27Q78 27 81 49L151 548V553Q151 569 136 569L98 567L102 597H510Q523 597 528 599L506 443ZM491 796T481 788L310 675Q298 666 289 666Q275 666 275 673Q275 677 284 686T295 697L402
805Q414 818 420 822T437 826Q454 826 472 817T491 800Q491 796 481 788Z" />
<glyph unicode="&#xca;" glyph-name="Ecircumflex" horiz-adv-x="545" d="M506 443H477Q480 461 480 475Q480 524 451 546T360 569H256Q246 569 244 555L212 325H302Q333 325 356 352T387 426H417L384 195H354Q356 211 356 218Q356 253 340 275T298 297H208L172
41V38Q172 28 180 28H316Q380 28 419 67T469 179H498L473 -3Q451 0 387 0H18L22 30L62 27Q78 27 81 49L151 548V553Q151 569 136 569L98 567L102 597H510Q523 597 528 599L506 443ZM192 666T192 673Q192 677 219 698Q226 704 244 719T278 749L328 797Q355 822 362
822Q365 822 372 815T388 797L424 749Q443 724 473 694Q489 678 489 674Q489 671 486 669T476 666Q466 666 449 678L352 751L232 678Q210 666 203 666Q192 666 192 673Z" />
<glyph unicode="&#xcb;" glyph-name="Edieresis" horiz-adv-x="545" d="M506 443H477Q480 461 480 475Q480 524 451 546T360 569H256Q246 569 244 555L212 325H302Q333 325 356 352T387 426H417L384 195H354Q356 211 356 218Q356 253 340 275T298 297H208L172
41V38Q172 28 180 28H316Q380 28 419 67T469 179H498L473 -3Q451 0 387 0H18L22 30L62 27Q78 27 81 49L151 548V553Q151 569 136 569L98 567L102 597H510Q523 597 528 599L506 443ZM291 772T303 761T316 731Q316 706 299 692T255 677Q234 677 221 688T207 718Q207
742 225 757T269 772Q291 772 303 761ZM465 772T477 761T490 731Q490 706 473 692T429 677Q408 677 395 688T381 718Q381 742 399 757T443 772Q465 772 477 761Z" />
<glyph unicode="&#xcc;" glyph-name="Igrave" horiz-adv-x="301" d="M303 567L264 569Q256 569 251 564T243 548L173 49V44Q173 27 188 27L227 29L223 0H18L22 29L61 27Q78 27 81 49L151 548V553Q151 560 148 564T137 569L98 567L102 597H307L303 567ZM420 826T424
823T433 814T440 805L522 691Q531 677 531 674Q531 666 514 666Q505 666 496 675L357 788Q351 794 351 799Q351 806 372 816T411 826Q420 826 424 823Z" />
<glyph unicode="&#xcd;" glyph-name="Iacute" horiz-adv-x="301" d="M303 567L264 569Q256 569 251 564T243 548L173 49V44Q173 27 188 27L227 29L223 0H18L22 29L61 27Q78 27 81 49L151 548V553Q151 560 148 564T137 569L98 567L102 597H307L303 567ZM362 796T352
788L181 675Q169 666 160 666Q146 666 146 673Q146 677 155 686T166 697L273 805Q285 818 291 822T308 826Q325 826 343 817T362 800Q362 796 352 788Z" />
<glyph unicode="&#xce;" glyph-name="Icircumflex" horiz-adv-x="301" d="M303 567L264 569Q256 569 251 564T243 548L173 49V44Q173 27 188 27L227 29L223 0H18L22 29L61 27Q78 27 81 49L151 548V553Q151 560 148 564T137 569L98 567L102 597H307L303 567ZM319
666T319 673Q319 677 346 698Q353 704 371 719T405 749L455 797Q482 822 489 822Q492 822 499 815T515 797L551 749Q570 724 600 694Q616 678 616 674Q616 671 613 669T603 666Q593 666 576 678L479 751L359 678Q337 666 330 666Q319 666 319 673Z" />
<glyph unicode="&#xcf;" glyph-name="Idieresis" horiz-adv-x="301" d="M303 567L264 569Q256 569 251 564T243 548L173 49V44Q173 27 188 27L227 29L223 0H18L22 29L61 27Q78 27 81 49L151 548V553Q151 560 148 564T137 569L98 567L102 597H307L303 567ZM162
772T174 761T187 731Q187 706 170 692T126 677Q105 677 92 688T78 718Q78 742 96 757T140 772Q162 772 174 761ZM336 772T348 761T361 731Q361 706 344 692T300 677Q279 677 266 688T252 718Q252 742 270 757T314 772Q336 772 348 761Z" />
<glyph unicode="&#xd0;" glyph-name="Eth" horiz-adv-x="613" d="M456 597T522 542T588 362Q588 187 504 94T248 0H18L22 29L65 27Q77 27 81 49L115 293H51L56 329H120L151 548V553Q151 560 148 564T137 569L98 567L102 597H320Q456 597 522 542ZM487 287T487
373Q487 477 443 523T300 569H256Q245 569 244 556L212 329H396L391 293H207L172 41L171 37Q171 28 180 28H224Q300 28 347 48T421 105T464 202Q487 287 487 373Z" />
<glyph unicode="&#xd1;" glyph-name="Ntilde" horiz-adv-x="641" d="M648 567L607 569Q592 569 589 548L511 -6H479L179 521L113 49V42Q113 27 126 27L175 29L171 0H13L17 29L56 27Q74 27 77 49L147 548V553Q147 560 143 564T132 569L93 567L97 597H249L498 158L553
549L554 555Q552 569 541 569L489 567L493 597H652L648 567ZM345 767T405 745Q458 724 480 724Q494 724 505 736T519 766H539Q534 729 512 702T462 675Q447 675 428 680T379 697Q326 718 304 718Q290 718 279 706T265 676H245Q250 713 272 740T322 767Q345 767
405 745Z" />
<glyph unicode="&#xd2;" glyph-name="Ograve" horiz-adv-x="649" d="M50 389T105 470T234 579T379 607Q472 607 547 554T623 356Q623 209 568 128T438 19T293 -10Q200 -10 125 44T50 242Q50 389 105 470ZM148 140T164 97T215 36T306 17Q425 17 478 139Q524 247
524 383Q524 457 508 500T457 561T366 580Q240 580 189 443Q148 335 148 215Q148 140 164 97ZM339 826T343 823T352 814T359 805L441 691Q450 677 450 674Q450 666 433 666Q424 666 415 675L276 788Q270 794 270 799Q270 806 291 816T330 826Q339 826 343 823Z"
/>
<glyph unicode="&#xd3;" glyph-name="Oacute" horiz-adv-x="649" d="M50 389T105 470T234 579T379 607Q472 607 547 554T623 356Q623 209 568 128T438 19T293 -10Q200 -10 125 44T50 242Q50 389 105 470ZM148 140T164 97T215 36T306 17Q425 17 478 139Q524 247
524 383Q524 457 508 500T457 561T366 580Q240 580 189 443Q148 335 148 215Q148 140 164 97ZM537 796T527 788L356 675Q344 666 335 666Q321 666 321 673Q321 677 330 686T341 697L448 805Q460 818 466 822T483 826Q500 826 518 817T537 800Q537 796 527 788Z"
/>
<glyph unicode="&#xd4;" glyph-name="Ocircumflex" horiz-adv-x="649" d="M50 389T105 470T234 579T379 607Q472 607 547 554T623 356Q623 209 568 128T438 19T293 -10Q200 -10 125 44T50 242Q50 389 105 470ZM148 140T164 97T215 36T306 17Q425 17 478 139Q524
247 524 383Q524 457 508 500T457 561T366 580Q240 580 189 443Q148 335 148 215Q148 140 164 97ZM238 666T238 673Q238 677 265 698Q272 704 290 719T324 749L374 797Q401 822 408 822Q411 822 418 815T434 797L470 749Q489 724 519 694Q535 678 535 674Q535 671
532 669T522 666Q512 666 495 678L398 751L278 678Q256 666 249 666Q238 666 238 673Z" />
<glyph unicode="&#xd5;" glyph-name="Otilde" horiz-adv-x="649" d="M50 389T105 470T234 579T379 607Q472 607 547 554T623 356Q623 209 568 128T438 19T293 -10Q200 -10 125 44T50 242Q50 389 105 470ZM148 140T164 97T215 36T306 17Q425 17 478 139Q524 247
524 383Q524 457 508 500T457 561T366 580Q240 580 189 443Q148 335 148 215Q148 140 164 97ZM345 767T405 745Q458 724 480 724Q494 724 505 736T519 766H539Q534 729 512 702T462 675Q447 675 428 680T379 697Q326 718 304 718Q290 718 279 706T265 676H245Q250
713 272 740T322 767Q345 767 405 745Z" />
<glyph unicode="&#xd6;" glyph-name="Odieresis" horiz-adv-x="649" d="M50 389T105 470T234 579T379 607Q472 607 547 554T623 356Q623 209 568 128T438 19T293 -10Q200 -10 125 44T50 242Q50 389 105 470ZM148 140T164 97T215 36T306 17Q425 17 478 139Q524
247 524 383Q524 457 508 500T457 561T366 580Q240 580 189 443Q148 335 148 215Q148 140 164 97ZM337 772T349 761T362 731Q362 706 345 692T301 677Q280 677 267 688T253 718Q253 742 271 757T315 772Q337 772 349 761ZM511 772T523 761T536 731Q536 706 519
692T475 677Q454 677 441 688T427 718Q427 742 445 757T489 772Q511 772 523 761Z" />
<glyph unicode="&#xd7;" glyph-name="multiply" horiz-adv-x="445" d="M385 435L410 405L260 269L372 131L340 102L227 239L77 103L51 132L202 269L91 404L124 434L234 298L385 435Z" />
<glyph unicode="&#xd8;" glyph-name="Oslash" horiz-adv-x="644" d="M623 494T623 356Q623 209 568 128T438 19T293 -10Q217 -10 161 21L81 -92L46 -74L128 42Q50 108 50 242Q50 389 105 470T234 579T379 607Q452 607 508 579L584 687L619 666L542 557Q623 494
623 356ZM148 140T166 95L482 542Q445 580 366 580Q240 580 189 443Q148 335 148 215Q148 140 166 95ZM524 247T524 383Q524 462 505 506L188 58Q223 17 306 17Q425 17 478 139Q524 247 524 383Z" />
<glyph unicode="&#xd9;" glyph-name="Ugrave" horiz-adv-x="631" d="M657 567L618 569Q602 569 599 549L548 189Q534 88 473 39T303 -10Q197 -10 141 33T84 161Q84 180 87 199L136 548V553Q136 560 133 564T123 569L84 567L88 597H303L299 567L250 569Q232 569
229 549L180 199Q177 180 177 163Q177 98 215 62T324 26Q409 26 454 68T512 198L561 548V553Q561 569 548 569L499 567L503 597H661L657 567ZM339 826T343 823T352 814T359 805L441 691Q450 677 450 674Q450 666 433 666Q424 666 415 675L276 788Q270 794 270 799Q270
806 291 816T330 826Q339 826 343 823Z" />
<glyph unicode="&#xda;" glyph-name="Uacute" horiz-adv-x="631" d="M657 567L618 569Q602 569 599 549L548 189Q534 88 473 39T303 -10Q197 -10 141 33T84 161Q84 180 87 199L136 548V553Q136 560 133 564T123 569L84 567L88 597H303L299 567L250 569Q232 569
229 549L180 199Q177 180 177 163Q177 98 215 62T324 26Q409 26 454 68T512 198L561 548V553Q561 569 548 569L499 567L503 597H661L657 567ZM537 796T527 788L356 675Q344 666 335 666Q321 666 321 673Q321 677 330 686T341 697L448 805Q460 818 466 822T483 826Q500
826 518 817T537 800Q537 796 527 788Z" />
<glyph unicode="&#xdb;" glyph-name="Ucircumflex" horiz-adv-x="631" d="M657 567L618 569Q602 569 599 549L548 189Q534 88 473 39T303 -10Q197 -10 141 33T84 161Q84 180 87 199L136 548V553Q136 560 133 564T123 569L84 567L88 597H303L299 567L250 569Q232
569 229 549L180 199Q177 180 177 163Q177 98 215 62T324 26Q409 26 454 68T512 198L561 548V553Q561 569 548 569L499 567L503 597H661L657 567ZM238 666T238 673Q238 677 265 698Q272 704 290 719T324 749L374 797Q401 822 408 822Q411 822 418 815T434 797L470
749Q489 724 519 694Q535 678 535 674Q535 671 532 669T522 666Q512 666 495 678L398 751L278 678Q256 666 249 666Q238 666 238 673Z" />
<glyph unicode="&#xdc;" glyph-name="Udieresis" horiz-adv-x="631" d="M657 567L618 569Q602 569 599 549L548 189Q534 88 473 39T303 -10Q197 -10 141 33T84 161Q84 180 87 199L136 548V553Q136 560 133 564T123 569L84 567L88 597H303L299 567L250 569Q232
569 229 549L180 199Q177 180 177 163Q177 98 215 62T324 26Q409 26 454 68T512 198L561 548V553Q561 569 548 569L499 567L503 597H661L657 567ZM337 772T349 761T362 731Q362 706 345 692T301 677Q280 677 267 688T253 718Q253 742 271 757T315 772Q337 772 349
761ZM511 772T523 761T536 731Q536 706 519 692T475 677Q454 677 441 688T427 718Q427 742 445 757T489 772Q511 772 523 761Z" />
<glyph unicode="&#xdd;" glyph-name="Yacute" horiz-adv-x="491" d="M555 597L551 567L521 569Q507 569 492 548L315 288L281 48V42Q281 27 296 27L344 29L340 0H116L120 29L169 27Q186 27 189 49L219 263L92 550Q87 561 83 565T73 569L45 567L49 597H265L261
567L208 569Q197 569 197 558Q197 554 200 545L299 319L456 549Q460 555 460 561Q460 569 453 569L402 567L406 597H555ZM468 796T458 788L287 675Q275 666 266 666Q252 666 252 673Q252 677 261 686T272 697L379 805Q391 818 397 822T414 826Q431 826 449 817T468
800Q468 796 458 788Z" />
<glyph unicode="&#xde;" glyph-name="Thorn" horiz-adv-x="508" d="M313 567L264 569Q257 569 252 563T244 548L237 496H314Q406 496 450 464T494 362Q494 272 438 217T288 162H190L174 49L173 42Q173 26 188 27L237 29L233 0H18L22 29L61 27Q78 27 81 49L151
548V553Q151 569 137 569L98 567L102 597H317L313 567ZM233 471L195 201V199Q195 194 197 191T204 188H270Q301 188 331 211T379 273T398 357Q398 409 371 440T295 471H233Z" />
<glyph unicode="&#xdf;" glyph-name="germandbls" horiz-adv-x="558" d="M135 567T198 648T365 730Q427 730 464 700T502 624Q502 597 490 577T460 544T411 510Q379 489 363 470T346 424Q346 396 364 373T420 315Q453 286 473 264T507 212T522 144Q522 97 499
62T438 9T353 -10Q296 -10 261 16T225 80Q225 102 238 119T279 137Q311 137 311 111Q311 101 305 85Q298 69 298 57Q298 17 362 17Q401 17 423 34T445 96Q445 142 423 175T357 250Q314 290 292 322T270 400Q270 430 280 450T306 482T348 511Q371 523 384 534Q405
550 416 571T428 623Q428 663 409 683T356 703Q237 703 209 454L170 102Q131 -245 -37 -245Q-78 -245 -107 -227T-136 -178Q-136 -160 -125 -147T-91 -134Q-76 -134 -65 -140T-54 -162Q-54 -168 -57 -178T-60 -193Q-60 -205 -52 -211T-29 -218Q2 -218 22 -187T55
-94T80 72L121 440Q135 567 198 648Z" />
<glyph unicode="&#xe0;" glyph-name="agrave" horiz-adv-x="466" d="M408 67T428 80L440 60Q410 24 377 7T318 -10Q304 -10 299 1T294 36Q294 65 315 187Q258 79 213 35T120 -10Q76 -10 52 22T28 112Q28 182 62 256T154 380T275 430Q299 430 319 420T353 393L359
415L443 429L419 330Q401 250 389 180T377 84Q377 67 390 67Q408 67 428 80ZM185 45T229 99T307 225T340 346Q340 369 322 384T277 400Q223 400 186 353T131 232Q117 180 117 123Q117 85 128 65T156 45Q185 45 229 99ZM237 653T241 650T250 641T257 632L339 518Q348
504 348 501Q348 493 331 493Q322 493 313 502L174 615Q168 621 168 626Q168 633 189 643T228 653Q237 653 241 650Z" />
<glyph unicode="&#xe1;" glyph-name="aacute" horiz-adv-x="466" d="M408 67T428 80L440 60Q410 24 377 7T318 -10Q304 -10 299 1T294 36Q294 65 315 187Q258 79 213 35T120 -10Q76 -10 52 22T28 112Q28 182 62 256T154 380T275 430Q299 430 319 420T353 393L359
415L443 429L419 330Q401 250 389 180T377 84Q377 67 390 67Q408 67 428 80ZM185 45T229 99T307 225T340 346Q340 369 322 384T277 400Q223 400 186 353T131 232Q117 180 117 123Q117 85 128 65T156 45Q185 45 229 99ZM433 623T423 615L252 502Q240 493 231 493Q217
493 217 500Q217 504 226 513T237 524L344 632Q356 645 362 649T379 653Q396 653 414 644T433 627Q433 623 423 615Z" />
<glyph unicode="&#xe2;" glyph-name="acircumflex" horiz-adv-x="466" d="M408 67T428 80L440 60Q410 24 377 7T318 -10Q304 -10 299 1T294 36Q294 65 315 187Q258 79 213 35T120 -10Q76 -10 52 22T28 112Q28 182 62 256T154 380T275 430Q299 430 319 420T353
393L359 415L443 429L419 330Q401 250 389 180T377 84Q377 67 390 67Q408 67 428 80ZM185 45T229 99T307 225T340 346Q340 369 322 384T277 400Q223 400 186 353T131 232Q117 180 117 123Q117 85 128 65T156 45Q185 45 229 99ZM134 493T134 500Q134 504 161 525Q168
531 186 546T220 576L270 624Q297 649 304 649Q307 649 314 642T330 624L366 576Q385 551 415 521Q431 505 431 501Q431 498 428 496T418 493Q408 493 391 505L294 578L174 505Q152 493 145 493Q134 493 134 500Z" />
<glyph unicode="&#xe3;" glyph-name="atilde" horiz-adv-x="466" d="M408 67T428 80L440 60Q410 24 377 7T318 -10Q304 -10 299 1T294 36Q294 65 315 187Q258 79 213 35T120 -10Q76 -10 52 22T28 112Q28 182 62 256T154 380T275 430Q299 430 319 420T353 393L359
415L443 429L419 330Q401 250 389 180T377 84Q377 67 390 67Q408 67 428 80ZM185 45T229 99T307 225T340 346Q340 369 322 384T277 400Q223 400 186 353T131 232Q117 180 117 123Q117 85 128 65T156 45Q185 45 229 99ZM246 621T306 599Q359 578 381 578Q395 578
406 590T420 620H440Q435 583 413 556T363 529Q348 529 329 534T280 551Q227 572 205 572Q191 572 180 560T166 530H146Q151 567 173 594T223 621Q246 621 306 599Z" />
<glyph unicode="&#xe4;" glyph-name="adieresis" horiz-adv-x="466" d="M408 67T428 80L440 60Q410 24 377 7T318 -10Q304 -10 299 1T294 36Q294 65 315 187Q258 79 213 35T120 -10Q76 -10 52 22T28 112Q28 182 62 256T154 380T275 430Q299 430 319 420T353 393L359
415L443 429L419 330Q401 250 389 180T377 84Q377 67 390 67Q408 67 428 80ZM185 45T229 99T307 225T340 346Q340 369 322 384T277 400Q223 400 186 353T131 232Q117 180 117 123Q117 85 128 65T156 45Q185 45 229 99ZM238 643T250 632T263 602Q263 577 246 563T202
548Q181 548 168 559T154 589Q154 613 172 628T216 643Q238 643 250 632ZM412 643T424 632T437 602Q437 577 420 563T376 548Q355 548 342 559T328 589Q328 613 346 628T390 643Q412 643 424 632Z" />
<glyph unicode="&#xe5;" glyph-name="aring" horiz-adv-x="466" d="M408 67T428 80L440 60Q410 24 377 7T318 -10Q304 -10 299 1T294 36Q294 65 315 187Q258 79 213 35T120 -10Q76 -10 52 22T28 112Q28 182 62 256T154 380T275 430Q299 430 319 420T353 393L359
415L443 429L419 330Q401 250 389 180T377 84Q377 67 390 67Q408 67 428 80ZM185 45T229 99T307 225T340 346Q340 369 322 384T277 400Q223 400 186 353T131 232Q117 180 117 123Q117 85 128 65T156 45Q185 45 229 99ZM214 603T241 629T306 656Q340 656 358 637T377
585Q377 545 351 519T283 493Q250 493 232 512T214 565Q214 603 241 629ZM259 551T266 540T288 529Q306 529 318 544T331 581Q331 599 324 609T301 620Q283 620 271 605T259 569Q259 551 266 540Z" />
<glyph unicode="&#xe6;" glyph-name="ae" horiz-adv-x="643" d="M634 297T606 265T517 211T360 181Q359 172 359 154Q359 104 380 75T436 45Q481 45 568 100L590 84Q550 43 504 17T411 -9Q354 -9 315 29T271 130Q231 56 192 23T106 -10Q62 -10 38 22T13 103Q13
175 65 246T201 364T376 410Q404 410 420 406Q463 430 508 430Q562 430 598 402T634 332Q634 297 606 265ZM563 364T549 382T506 400Q440 400 397 319Q371 268 364 213Q459 220 511 254T563 338Q563 364 549 382ZM283 245T311 295T382 380H380Q306 380 249 347T155
261Q129 225 116 186T102 115Q102 89 112 67T141 45Q173 45 210 87T274 191Q283 245 311 295Z" />
<glyph unicode="&#xe7;" glyph-name="ccedilla" horiz-adv-x="406" d="M300 278T300 304Q300 313 308 329Q316 345 316 358Q316 378 301 389T263 400Q195 400 149 307Q115 237 115 158Q115 106 135 76T192 45Q219 45 251 60T324 100L346 84Q312 49 273 24T195
-7L169 -43Q160 -55 160 -63Q160 -69 166 -72T188 -79Q211 -86 222 -93T234 -117Q234 -159 207 -186T130 -214Q86 -214 64 -198L76 -171Q86 -187 108 -187Q131 -187 148 -170T166 -130Q166 -113 141 -94L121 -80Q111 -73 111 -66Q111 -60 120 -52L158 -9Q97 -5
62 37T26 145Q26 217 60 283T149 389T265 430Q317 430 352 403T387 337Q387 314 374 296T332 278Q300 278 300 304Z" />
<glyph unicode="&#xe8;" glyph-name="egrave" horiz-adv-x="399" d="M390 297T362 265T273 211T116 181Q115 172 115 154Q115 104 136 75T192 45Q237 45 324 100L346 84Q306 43 260 17T167 -9Q106 -9 66 34T26 147Q26 214 59 280T148 388T264 430Q318 430 354
402T390 332Q390 297 362 265ZM196 400T153 319Q127 268 120 213Q215 220 267 254T319 338Q319 364 305 382T262 400Q196 400 153 319ZM202 653T206 650T215 641T222 632L304 518Q313 504 313 501Q313 493 296 493Q287 493 278 502L139 615Q133 621 133 626Q133
633 154 643T193 653Q202 653 206 650Z" />
<glyph unicode="&#xe9;" glyph-name="eacute" horiz-adv-x="399" d="M390 297T362 265T273 211T116 181Q115 172 115 154Q115 104 136 75T192 45Q237 45 324 100L346 84Q306 43 260 17T167 -9Q106 -9 66 34T26 147Q26 214 59 280T148 388T264 430Q318 430 354
402T390 332Q390 297 362 265ZM196 400T153 319Q127 268 120 213Q215 220 267 254T319 338Q319 364 305 382T262 400Q196 400 153 319ZM398 623T388 615L217 502Q205 493 196 493Q182 493 182 500Q182 504 191 513T202 524L309 632Q321 645 327 649T344 653Q361
653 379 644T398 627Q398 623 388 615Z" />
<glyph unicode="&#xea;" glyph-name="ecircumflex" horiz-adv-x="399" d="M390 297T362 265T273 211T116 181Q115 172 115 154Q115 104 136 75T192 45Q237 45 324 100L346 84Q306 43 260 17T167 -9Q106 -9 66 34T26 147Q26 214 59 280T148 388T264 430Q318 430
354 402T390 332Q390 297 362 265ZM196 400T153 319Q127 268 120 213Q215 220 267 254T319 338Q319 364 305 382T262 400Q196 400 153 319ZM99 493T99 500Q99 504 126 525Q133 531 151 546T185 576L235 624Q262 649 269 649Q272 649 279 642T295 624L331 576Q350
551 380 521Q396 505 396 501Q396 498 393 496T383 493Q373 493 356 505L259 578L139 505Q117 493 110 493Q99 493 99 500Z" />
<glyph unicode="&#xeb;" glyph-name="edieresis" horiz-adv-x="399" d="M390 297T362 265T273 211T116 181Q115 172 115 154Q115 104 136 75T192 45Q237 45 324 100L346 84Q306 43 260 17T167 -9Q106 -9 66 34T26 147Q26 214 59 280T148 388T264 430Q318 430 354
402T390 332Q390 297 362 265ZM196 400T153 319Q127 268 120 213Q215 220 267 254T319 338Q319 364 305 382T262 400Q196 400 153 319ZM203 643T215 632T228 602Q228 577 211 563T167 548Q146 548 133 559T119 589Q119 613 137 628T181 643Q203 643 215 632ZM377
643T389 632T402 602Q402 577 385 563T341 548Q320 548 307 559T293 589Q293 613 311 628T355 643Q377 643 389 632Z" />
<glyph unicode="&#xec;" glyph-name="igrave" horiz-adv-x="256" d="M181 27T153 9T102 -10Q84 -10 74 1T64 36Q64 53 70 93T78 147L90 223Q103 310 103 347Q103 361 94 367T72 373Q64 373 56 371L51 400Q114 426 165 426Q180 426 188 422T196 404Q196 396 184
334Q165 235 164 230Q148 139 148 94Q148 67 165 67Q181 67 201 80L213 60Q181 27 153 9ZM375 653T379 650T388 641T395 632L477 518Q486 504 486 501Q486 493 469 493Q460 493 451 502L312 615Q306 621 306 626Q306 633 327 643T366 653Q375 653 379 650Z" />
<glyph unicode="&#xed;" glyph-name="iacute" horiz-adv-x="256" d="M181 27T153 9T102 -10Q84 -10 74 1T64 36Q64 53 70 93T78 147L90 223Q103 310 103 347Q103 361 94 367T72 373Q64 373 56 371L51 400Q114 426 165 426Q180 426 188 422T196 404Q196 396 184
334Q165 235 164 230Q148 139 148 94Q148 67 165 67Q181 67 201 80L213 60Q181 27 153 9ZM315 623T305 615L134 502Q122 493 113 493Q99 493 99 500Q99 504 108 513T119 524L226 632Q238 645 244 649T261 653Q278 653 296 644T315 627Q315 623 305 615Z" />
<glyph unicode="&#xee;" glyph-name="icircumflex" horiz-adv-x="256" d="M181 27T153 9T102 -10Q84 -10 74 1T64 36Q64 53 70 93T78 147L90 223Q103 310 103 347Q103 361 94 367T72 373Q64 373 56 371L51 400Q114 426 165 426Q180 426 188 422T196 404Q196 396
184 334Q165 235 164 230Q148 139 148 94Q148 67 165 67Q181 67 201 80L213 60Q181 27 153 9ZM449 659T457 644L536 521Q549 502 549 500Q549 497 546 495T538 493Q524 493 511 506L432 583L331 506Q314 493 300 493Q297 493 294 495T291 499Q291 501 309 521L425
644Q430 650 435 654T443 659Q449 659 457 644Z" />
<glyph unicode="&#xef;" glyph-name="idieresis" horiz-adv-x="256" d="M181 27T153 9T102 -10Q84 -10 74 1T64 36Q64 53 70 93T78 147L90 223Q103 310 103 347Q103 361 94 367T72 373Q64 373 56 371L51 400Q114 426 165 426Q180 426 188 422T196 404Q196 396
184 334Q165 235 164 230Q148 139 148 94Q148 67 165 67Q181 67 201 80L213 60Q181 27 153 9ZM376 643T388 632T401 602Q401 577 384 563T340 548Q319 548 306 559T292 589Q292 613 310 628T354 643Q376 643 388 632ZM294 643T306 632T319 602Q319 577 302 563T258
548Q237 548 224 559T210 589Q210 613 228 628T272 643Q294 643 306 632Z" />
<glyph unicode="&#xf0;" glyph-name="eth" horiz-adv-x="449" d="M364 501T393 430T422 269Q422 192 390 128T301 27T175 -10Q97 -10 63 36T28 151Q28 231 61 294T146 394T250 430Q288 430 317 411Q308 444 292 472T256 517L145 456L134 483L235 538Q177 585 136
585L158 607Q190 607 224 596T286 566L386 621L396 594L310 546Q364 501 393 430ZM316 153T325 194T334 276Q334 338 314 370T259 402Q226 402 197 374T148 300Q116 228 116 149Q116 88 136 55T192 22Q223 22 251 48T300 119Q316 153 325 194Z" />
<glyph unicode="&#xf1;" glyph-name="ntilde" horiz-adv-x="504" d="M471 60Q440 28 408 9T353 -10Q339 -10 330 2T321 35Q321 52 328 89T343 166Q369 284 369 324Q369 347 358 361T326 375Q296 375 259 335T190 233T143 114L129 0H51Q52 7 56 28Q76 148 87 225T98
341Q98 373 69 373Q61 373 53 371L48 400Q77 412 101 419T151 426Q188 426 188 407Q188 395 173 309Q158 222 158 222Q194 309 246 369T362 430Q403 430 427 405T451 340Q451 318 445 286T431 223T422 183Q403 105 403 90Q403 82 407 75T422 67Q439 67 459 80L471
60ZM251 621T311 599Q364 578 386 578Q400 578 411 590T425 620H445Q440 583 418 556T368 529Q353 529 334 534T285 551Q232 572 210 572Q196 572 185 560T171 530H151Q156 567 178 594T228 621Q251 621 311 599Z" />
<glyph unicode="&#xf2;" glyph-name="ograve" d="M350 430T386 385T423 264Q423 193 393 130T307 29T179 -10Q101 -10 65 35T28 156Q28 227 58 290T144 391T272 430Q350 430 386 385ZM219 398T189 366T140 285Q116 219 116 148Q116 86 136 54T193 22Q234 22 266
58T317 152Q335 211 335 272Q335 334 315 366T258 398Q219 398 189 366ZM237 653T241 650T250 641T257 632L339 518Q348 504 348 501Q348 493 331 493Q322 493 313 502L174 615Q168 621 168 626Q168 633 189 643T228 653Q237 653 241 650Z" />
<glyph unicode="&#xf3;" glyph-name="oacute" d="M350 430T386 385T423 264Q423 193 393 130T307 29T179 -10Q101 -10 65 35T28 156Q28 227 58 290T144 391T272 430Q350 430 386 385ZM219 398T189 366T140 285Q116 219 116 148Q116 86 136 54T193 22Q234 22 266
58T317 152Q335 211 335 272Q335 334 315 366T258 398Q219 398 189 366ZM433 623T423 615L252 502Q240 493 231 493Q217 493 217 500Q217 504 226 513T237 524L344 632Q356 645 362 649T379 653Q396 653 414 644T433 627Q433 623 423 615Z" />
<glyph unicode="&#xf4;" glyph-name="ocircumflex" d="M350 430T386 385T423 264Q423 193 393 130T307 29T179 -10Q101 -10 65 35T28 156Q28 227 58 290T144 391T272 430Q350 430 386 385ZM219 398T189 366T140 285Q116 219 116 148Q116 86 136 54T193 22Q234
22 266 58T317 152Q335 211 335 272Q335 334 315 366T258 398Q219 398 189 366ZM134 493T134 500Q134 504 161 525Q168 531 186 546T220 576L270 624Q297 649 304 649Q307 649 314 642T330 624L366 576Q385 551 415 521Q431 505 431 501Q431 498 428 496T418 493Q408
493 391 505L294 578L174 505Q152 493 145 493Q134 493 134 500Z" />
<glyph unicode="&#xf5;" glyph-name="otilde" d="M350 430T386 385T423 264Q423 193 393 130T307 29T179 -10Q101 -10 65 35T28 156Q28 227 58 290T144 391T272 430Q350 430 386 385ZM219 398T189 366T140 285Q116 219 116 148Q116 86 136 54T193 22Q234 22 266
58T317 152Q335 211 335 272Q335 334 315 366T258 398Q219 398 189 366ZM246 621T306 599Q359 578 381 578Q395 578 406 590T420 620H440Q435 583 413 556T363 529Q348 529 329 534T280 551Q227 572 205 572Q191 572 180 560T166 530H146Q151 567 173 594T223 621Q246
621 306 599Z" />
<glyph unicode="&#xf6;" glyph-name="odieresis" d="M350 430T386 385T423 264Q423 193 393 130T307 29T179 -10Q101 -10 65 35T28 156Q28 227 58 290T144 391T272 430Q350 430 386 385ZM219 398T189 366T140 285Q116 219 116 148Q116 86 136 54T193 22Q234 22
266 58T317 152Q335 211 335 272Q335 334 315 366T258 398Q219 398 189 366ZM238 643T250 632T263 602Q263 577 246 563T202 548Q181 548 168 559T154 589Q154 613 172 628T216 643Q238 643 250 632ZM412 643T424 632T437 602Q437 577 420 563T376 548Q355 548
342 559T328 589Q328 613 346 628T390 643Q412 643 424 632Z" />
<glyph unicode="&#xf7;" glyph-name="divide" horiz-adv-x="445" d="M281 484T294 473T308 442Q308 418 291 404T246 389Q224 389 212 400T199 430Q199 455 216 469T259 484Q281 484 294 473ZM438 290L432 249H23L29 290H438ZM233 145T246 134T260 103Q260 79
243 65T198 50Q177 50 164 61T151 91Q151 115 168 130T211 145Q233 145 246 134Z" />
<glyph unicode="&#xf8;" glyph-name="oslash" horiz-adv-x="459" d="M381 391Q423 348 423 264Q423 193 393 130T307 29T179 -10Q143 -10 113 1L54 -85L18 -67L79 21Q28 64 28 156Q28 227 58 290T144 391T272 430Q315 430 349 414L411 504L443 482L381 391ZM116
110T123 86L315 365Q296 398 258 398Q219 398 189 366T140 285Q116 219 116 148Q116 110 123 86ZM335 300T331 319L143 45Q163 22 193 22Q234 22 266 58T317 152Q335 211 335 272Q335 300 331 319Z" />
<glyph unicode="&#xf9;" glyph-name="ugrave" horiz-adv-x="489" d="M463 60Q429 23 397 7T338 -10Q324 -10 319 1T314 36Q314 64 331 179Q275 76 230 33T136 -10Q96 -10 75 12T54 70Q54 107 84 240Q104 327 104 346Q104 373 67 373Q55 373 47 371L42 400Q83 414
107 420T157 426Q189 426 189 407Q189 393 169 295Q157 238 147 180T136 99Q136 75 144 60T170 45Q198 45 234 84T301 181T348 292L366 411L458 428Q426 263 413 189T400 84Q400 67 413 67Q431 67 451 80L463 60ZM241 653T245 650T254 641T261 632L343 518Q352
504 352 501Q352 493 335 493Q326 493 317 502L178 615Q172 621 172 626Q172 633 193 643T232 653Q241 653 245 650Z" />
<glyph unicode="&#xfa;" glyph-name="uacute" horiz-adv-x="489" d="M463 60Q429 23 397 7T338 -10Q324 -10 319 1T314 36Q314 64 331 179Q275 76 230 33T136 -10Q96 -10 75 12T54 70Q54 107 84 240Q104 327 104 346Q104 373 67 373Q55 373 47 371L42 400Q83 414
107 420T157 426Q189 426 189 407Q189 393 169 295Q157 238 147 180T136 99Q136 75 144 60T170 45Q198 45 234 84T301 181T348 292L366 411L458 428Q426 263 413 189T400 84Q400 67 413 67Q431 67 451 80L463 60ZM437 623T427 615L256 502Q244 493 235 493Q221
493 221 500Q221 504 230 513T241 524L348 632Q360 645 366 649T383 653Q400 653 418 644T437 627Q437 623 427 615Z" />
<glyph unicode="&#xfb;" glyph-name="ucircumflex" horiz-adv-x="489" d="M463 60Q429 23 397 7T338 -10Q324 -10 319 1T314 36Q314 64 331 179Q275 76 230 33T136 -10Q96 -10 75 12T54 70Q54 107 84 240Q104 327 104 346Q104 373 67 373Q55 373 47 371L42 400Q83
414 107 420T157 426Q189 426 189 407Q189 393 169 295Q157 238 147 180T136 99Q136 75 144 60T170 45Q198 45 234 84T301 181T348 292L366 411L458 428Q426 263 413 189T400 84Q400 67 413 67Q431 67 451 80L463 60ZM138 493T138 500Q138 504 165 525Q172 531
190 546T224 576L274 624Q301 649 308 649Q311 649 318 642T334 624L370 576Q389 551 419 521Q435 505 435 501Q435 498 432 496T422 493Q412 493 395 505L298 578L178 505Q156 493 149 493Q138 493 138 500Z" />
<glyph unicode="&#xfc;" glyph-name="udieresis" horiz-adv-x="489" d="M463 60Q429 23 397 7T338 -10Q324 -10 319 1T314 36Q314 64 331 179Q275 76 230 33T136 -10Q96 -10 75 12T54 70Q54 107 84 240Q104 327 104 346Q104 373 67 373Q55 373 47 371L42 400Q83
414 107 420T157 426Q189 426 189 407Q189 393 169 295Q157 238 147 180T136 99Q136 75 144 60T170 45Q198 45 234 84T301 181T348 292L366 411L458 428Q426 263 413 189T400 84Q400 67 413 67Q431 67 451 80L463 60ZM242 643T254 632T267 602Q267 577 250 563T206
548Q185 548 172 559T158 589Q158 613 176 628T220 643Q242 643 254 632ZM416 643T428 632T441 602Q441 577 424 563T380 548Q359 548 346 559T332 589Q332 613 350 628T394 643Q416 643 428 632Z" />
<glyph unicode="&#xfd;" glyph-name="yacute" horiz-adv-x="411" d="M371 429T387 413T404 368Q404 320 363 225T263 39Q195 -67 129 -129T15 -215T-58 -239Q-80 -239 -94 -231T-108 -195Q-108 -176 -95 -161T-63 -145Q-51 -145 -29 -157Q-20 -162 -11 -165T8
-169Q18 -169 43 -152T105 -100T181 -15L74 341Q70 359 63 366T41 374Q31 374 16 371L11 400Q34 410 60 418T104 426Q122 426 133 414T153 368L239 66Q287 138 319 206T351 315Q351 330 345 333T315 339Q302 340 295 351T287 381Q287 429 340 429Q371 429 387 413ZM398
623T388 615L217 502Q205 493 196 493Q182 493 182 500Q182 504 191 513T202 524L309 632Q321 645 327 649T344 653Q361 653 379 644T398 627Q398 623 388 615Z" />
<glyph unicode="&#xfe;" glyph-name="thorn" horiz-adv-x="460" d="M383 430T410 395T438 300Q438 230 407 158T323 38T206 -10Q176 -10 152 1T114 31Q88 -154 86 -203Q86 -215 95 -215L158 -213L154 -239H-40L-36 -213L-5 -215Q6 -214 9 -195Q16 -139 32 -42Q75
246 98 417T121 651Q121 663 112 669T88 675Q73 675 64 673L58 698Q91 714 123 722T176 730Q196 730 205 726T214 708Q214 696 192 568L175 464L142 232Q186 334 236 382T336 430Q383 430 410 395ZM330 143T339 191T349 276Q349 322 335 348T300 375Q272 375 230
325T157 208T125 94Q125 52 149 36T202 20Q270 20 311 103Q330 143 339 191Z" />
<glyph unicode="&#xff;" glyph-name="ydieresis" horiz-adv-x="411" d="M371 429T387 413T404 368Q404 320 363 225T263 39Q195 -67 129 -129T15 -215T-58 -239Q-80 -239 -94 -231T-108 -195Q-108 -176 -95 -161T-63 -145Q-51 -145 -29 -157Q-20 -162 -11 -165T8
-169Q18 -169 43 -152T105 -100T181 -15L74 341Q70 359 63 366T41 374Q31 374 16 371L11 400Q34 410 60 418T104 426Q122 426 133 414T153 368L239 66Q287 138 319 206T351 315Q351 330 345 333T315 339Q302 340 295 351T287 381Q287 429 340 429Q371 429 387 413ZM203
643T215 632T228 602Q228 577 211 563T167 548Q146 548 133 559T119 589Q119 613 137 628T181 643Q203 643 215 632ZM377 643T389 632T402 602Q402 577 385 563T341 548Q320 548 307 559T293 589Q293 613 311 628T355 643Q377 643 389 632Z" />
<glyph unicode="&#x2013;" glyph-name="endash" horiz-adv-x="484" d="M469 230L464 191H14L19 230H469Z" />
<glyph unicode="&#x2014;" glyph-name="emdash" horiz-adv-x="810" d="M812 230L807 191H-3L2 230H812Z" />
<glyph unicode="&#x2018;" glyph-name="quoteleft" horiz-adv-x="218" d="M93 393T78 410T63 459Q63 514 104 563T196 645L213 633Q183 606 157 571T131 513Q131 489 161 489Q175 489 181 479T188 455Q188 430 168 412T122 393Q93 393 78 410Z" />
<glyph unicode="&#x2019;" glyph-name="quoteright" horiz-adv-x="214" d="M207 631T222 614T237 565Q237 510 196 461T104 379L87 391Q117 418 143 453T169 511Q169 535 139 535Q125 535 119 545T112 569Q112 594 132 612T178 631Q207 631 222 614Z" />
<glyph unicode="&#x201a;" glyph-name="quotesinglbase" horiz-adv-x="256" d="M167 92T182 75T197 26Q197 -29 156 -78T64 -160L47 -148Q77 -121 103 -86T129 -28Q129 -4 99 -4Q85 -4 79 6T72 30Q72 55 92 73T138 92Q167 92 182 75Z" />
<glyph unicode="&#x201c;" glyph-name="quotedblleft" horiz-adv-x="371" d="M102 394T87 411T72 460Q72 515 113 564T205 646L222 634Q192 607 166 572T140 514Q140 490 170 490Q184 490 190 480T197 456Q197 431 177 413T131 394Q102 394 87 411ZM266 394T251
411T236 460Q236 515 277 564T369 646L386 634Q356 607 330 572T304 514Q304 490 334 490Q348 490 354 480T361 456Q361 431 341 413T295 394Q266 394 251 411Z" />
<glyph unicode="&#x201d;" glyph-name="quotedblright" horiz-adv-x="382" d="M210 631T225 614T240 565Q240 510 199 461T107 379L90 391Q120 418 146 453T172 511Q172 535 142 535Q128 535 122 545T115 569Q115 594 135 612T181 631Q210 631 225 614ZM374 631T389
614T404 565Q404 510 363 461T271 379L254 391Q284 418 310 453T336 511Q336 535 306 535Q292 535 286 545T279 569Q279 594 299 612T345 631Q374 631 389 614Z" />
<glyph unicode="&#x201e;" glyph-name="quotedblbase" horiz-adv-x="445" d="M167 92T182 75T197 26Q197 -29 156 -78T64 -160L47 -148Q77 -121 103 -86T129 -28Q129 -4 99 -4Q85 -4 79 6T72 30Q72 55 92 73T138 92Q167 92 182 75ZM347 92T362 75T377 26Q377 -29
336 -78T244 -160L227 -148Q257 -121 283 -86T309 -28Q309 -4 279 -4Q265 -4 259 6T252 30Q252 55 272 73T318 92Q347 92 362 75Z" />
<glyph unicode="&#x2022;" glyph-name="bullet" horiz-adv-x="452" d="M104 269T123 299T176 346T247 363Q295 363 325 335T355 261Q355 224 336 195T284 148T214 131Q164 131 134 159T104 232Q104 269 123 299Z" />
<glyph unicode="&#x2039;" glyph-name="guilsinglleft" horiz-adv-x="219" d="M225 358L107 187L177 16H140L21 187L188 358H225Z" />
<glyph unicode="&#x203a;" glyph-name="guilsinglright" horiz-adv-x="218" d="M-14 16L104 187L34 358H71L190 187L23 16H-14Z" />
</font>
</defs>
</svg>
